Horror

The House on Sorority RowDVDRipKooKoo

  • Download 5x Faster
  • Download torrent
  • Direct Download
  • Rate this torrent +  |  -
The House on Sorority RowDVDRipKooKoo

Anonymous and Free Direct Download 300GB+


Torrent info

Name:The House on Sorority RowDVDRipKooKoo

Total Size: 707.82 MB

Magnet: Magnet Link

Seeds: 0

Leechers: 1

Stream: Watch Online @ Movie4u

Last Updated: 2015-09-01 07:52:24 (Update Now)

Torrent added: 2009-08-19 00:00:00



VPN For Torrents

Torrent Files List


KooKoo.nfo (Size: 707.82 MB) (Files: 5)

 KooKoo.nfo

5.44 KB

 Sample.avi

10.99 MB

 The House on Sorority Row[DVDRip][KooKoo].avi

696.83 MB

 Torrent downloaded from Demonoid.com.txt

0.05 KB

 tracked_by_h33t_com.txt

0.02 KB
 

tracker

leech seeds
 

Torrent description




±ÛÛÛÛÛ± ±ÛÛÛÛÛÛ±ÛÛÛÛÛÛ±ÛÛÛÛÛÛ±ÛÛÛÛÛ± ±ÛÛÛÛÛÛ±ÛÛÛÛÛÛ±ÛÛÛÛÛÛ
±ÛÛÛÛÛ±±ÛÛÛÛÛÛ±±ÛÛÛÛÛÛ±ÛÛÛÛÛÛ±ÛÛÛÛÛ±±ÛÛÛÛÛÛ±±ÛÛÛÛÛÛ±ÛÛÛÛÛÛ
±ÛÛÛÛÛ±ÛÛÛÛÛÛ± ±ÛÛÛÛÛÛ±ÛÛÛÛÛÛ±ÛÛÛÛÛ±ÛÛÛÛÛÛ± ±ÛÛÛÛÛÛ±ÛÛÛÛÛÛ
±ÛÛÛÛÛÛÛÛÛÛÛ± ±ÛÛÛÛÛÛ±ÛÛÛÛÛÛ±ÛÛÛÛÛÛÛÛÛÛÛ± ±ÛÛÛÛÛÛ±ÛÛÛÛÛÛ
±ÛÛÛÛÛÛÛÛÛÛ± ±ÛÛ±±ÛÛ±ÛÛ±±ÛÛ±ÛÛÛÛÛÛÛÛÛÛ± ±ÛÛ±±ÛÛ±ÛÛ±±ÛÛ
±ÛÛÛÛÛÛÛÛÛ± ±ÛÛ±±ÛÛ±ÛÛ±±ÛÛ±ÛÛÛÛÛÛÛÛÛ± ±ÛÛ±±ÛÛ±ÛÛ±±ÛÛ
±ÛÛÛÛÛÛÛÛÛ± ±ÛÛ±±ÛÛ±ÛÛ±±ÛÛ±ÛÛÛÛÛÛÛÛÛ± ±ÛÛ±±ÛÛ±ÛÛ±±ÛÛ
±ÛÛÛÛÛÛÛÛÛÛ± ±ÛÛÛÛÛÛ±ÛÛÛÛÛÛ±ÛÛÛÛÛÛÛÛÛÛ± ±ÛÛÛÛÛÛ±ÛÛÛÛÛÛ
±ÛÛÛÛÛÛÛÛÛÛÛ± ±ÛÛÛÛÛÛ±ÛÛÛÛÛÛ±ÛÛÛÛÛÛÛÛÛÛÛ± ±ÛÛÛÛÛÛ±ÛÛÛÛÛÛ
±ÛÛÛÛÛ±ÛÛÛÛÛÛ± ±ÛÛÛÛÛÛ±ÛÛÛÛÛÛ±ÛÛÛÛÛ±ÛÛÛÛÛÛ± ±ÛÛÛÛÛÛ±ÛÛÛÛÛÛ
±ÛÛÛÛÛ±±ÛÛÛÛÛÛ±±ÛÛÛÛÛÛ±ÛÛÛÛÛÛ±ÛÛÛÛÛ±±ÛÛÛÛÛÛ±±ÛÛÛÛÛÛ±ÛÛÛÛÛÛ
±ÛÛÛÛÛ± ±ÛÛÛÛÛÛ ±±±±±±±±ÛÛÛÛÛ± ±ÛÛÛÛÛÛ ±±±±±±±



*******************************************************************************
The House on Sorority Row (1983)
*******************************************************************************

Someone is watching...and waiting.
Someone who knows their secret.
Someone saw them kill...and now...it's their turn.

From the 80s, the decade of the "slasher flick," comes this classic thriller.

http://www.imdb.com/title/tt0085694/

*******************************************************************************
File Information
*******************************************************************************
-------------------------------------------------------------------------------
General
Complete name : The House on Sorority Row[DVDRip][KooKoo].avi
Format : AVI
Format/Info : Audio Video Interleave
File size : 697 MiB
Duration : 1h 31mn
Overal bit rate : 1069 Kbps
Movie name : The House on Sorority Row[DVDRip][KooKoo]
Copyright : Ripped By KooKoo
Comment : Subtitles Not Included
-------------------------------------------------------------------------------
Video
Format : MPEG-4 Visual
Format profile : [email protected]
Format settings, BVOP : No
Format settings, QPel : No
Format settings, GMC : No warppoints
Format settings, Matrix : Default
Codec ID : XVID
Codec ID/Hint : XviD
Duration : 1h 31mn
Bit rate : 932 Kbps
Width : 640 pixels
Height : 352 pixels
Display aspect ratio : 16/9
Frame rate : 25.000 fps
Resolution : 8 bits
Colorimetry : 4:2:0
Scan type : Progressive
Bits/(Pixel*Frame) : 0.165
Stream size : 607 MiB
Writing library : XviD 0.0.09 (UTC 2003-03-25)
-------------------------------------------------------------------------------
Audio
Format : MPEG Audio
Format version : Version 1
Format profile : Layer 3
Codec ID : 55
Codec ID/Hint : MP3
Duration : 1h 31mn
Bit rate mode : Constant
Bit rate : 128 Kbps
Channel(s) : 2 channels
Sampling rate : 48.0 KHz
Resolution : 16 bits
Stream size : 83.4 MiB
Language : english


*******************************************************************************
Screenshots
*******************************************************************************

The House on Sorority RowDVDRipKooKoo preview 0


*******************************************************************************
DVDCover
*******************************************************************************

The House on Sorority RowDVDRipKooKoo preview 1

------------------------------------------------------------------------------

Enjoy and keep this alive. The more you seed the quicker I can share my stuff with you.
~KooKoo

You can find me at h33t.com and DarksideRg

related torrents

Torrent name

health leech seeds Size
 


comments (0)

Main Menu