Comedy

Eddie Murphy Delirious 1983 Avi Xvid GuySmiley [

  • Download 5x Faster
  • Download torrent
  • Direct Download
  • Rate this torrent +  |  -
Eddie Murphy Delirious 1983 Avi Xvid GuySmiley [

Free and Direct Download with Usenet.nl 300GB+ free


Torrent info

Name:Eddie Murphy Delirious 1983 Avi Xvid GuySmiley [

Total Size: 709.23 MB

Magnet: Magnet Link

Seeds: 0

Leechers: 0

Stream: Watch Online @ Movie4u

Last Updated: 2015-09-09 18:42:38 (Update Now)

Torrent added: 2009-08-31 04:42:08





Torrent Files List


Eddie Murphy Delirious 1983 Avi Xvid-GuySmiley.nfo (Size: 709.23 MB) (Files: 52)

 Eddie Murphy Delirious 1983 Avi Xvid-GuySmiley.nfo

1.97 KB

 Eddie Murphy Delirious 1983 Avi Xvid-GuySmiley.r00

14.31 MB

 Eddie Murphy Delirious 1983 Avi Xvid-GuySmiley.r01

14.31 MB

 Eddie Murphy Delirious 1983 Avi Xvid-GuySmiley.r02

14.31 MB

 Eddie Murphy Delirious 1983 Avi Xvid-GuySmiley.r03

14.31 MB

 Eddie Murphy Delirious 1983 Avi Xvid-GuySmiley.r04

14.31 MB

 Eddie Murphy Delirious 1983 Avi Xvid-GuySmiley.r05

14.31 MB

 Eddie Murphy Delirious 1983 Avi Xvid-GuySmiley.r06

14.31 MB

 Eddie Murphy Delirious 1983 Avi Xvid-GuySmiley.r07

14.31 MB

 Eddie Murphy Delirious 1983 Avi Xvid-GuySmiley.r08

14.31 MB

 Eddie Murphy Delirious 1983 Avi Xvid-GuySmiley.r09

14.31 MB

 Eddie Murphy Delirious 1983 Avi Xvid-GuySmiley.r10

14.31 MB

 Eddie Murphy Delirious 1983 Avi Xvid-GuySmiley.r11

14.31 MB

 Eddie Murphy Delirious 1983 Avi Xvid-GuySmiley.r12

14.31 MB

 Eddie Murphy Delirious 1983 Avi Xvid-GuySmiley.r13

14.31 MB

 Eddie Murphy Delirious 1983 Avi Xvid-GuySmiley.r14

14.31 MB

 Eddie Murphy Delirious 1983 Avi Xvid-GuySmiley.r15

14.31 MB

 Eddie Murphy Delirious 1983 Avi Xvid-GuySmiley.r16

14.31 MB

 Eddie Murphy Delirious 1983 Avi Xvid-GuySmiley.r17

14.31 MB

 Eddie Murphy Delirious 1983 Avi Xvid-GuySmiley.r18

14.31 MB

 Eddie Murphy Delirious 1983 Avi Xvid-GuySmiley.r19

14.31 MB

 Eddie Murphy Delirious 1983 Avi Xvid-GuySmiley.r20

14.31 MB

 Eddie Murphy Delirious 1983 Avi Xvid-GuySmiley.r21

14.31 MB

 Eddie Murphy Delirious 1983 Avi Xvid-GuySmiley.r22

14.31 MB

 Eddie Murphy Delirious 1983 Avi Xvid-GuySmiley.r23

14.31 MB

 Eddie Murphy Delirious 1983 Avi Xvid-GuySmiley.r24

14.31 MB

 Eddie Murphy Delirious 1983 Avi Xvid-GuySmiley.r25

14.31 MB

 Eddie Murphy Delirious 1983 Avi Xvid-GuySmiley.r26

14.31 MB

 Eddie Murphy Delirious 1983 Avi Xvid-GuySmiley.r27

14.31 MB

 Eddie Murphy Delirious 1983 Avi Xvid-GuySmiley.r28

14.31 MB

 Eddie Murphy Delirious 1983 Avi Xvid-GuySmiley.r29

14.31 MB

 Eddie Murphy Delirious 1983 Avi Xvid-GuySmiley.r30

14.31 MB

 Eddie Murphy Delirious 1983 Avi Xvid-GuySmiley.r31

14.31 MB

 Eddie Murphy Delirious 1983 Avi Xvid-GuySmiley.r32

14.31 MB

 Eddie Murphy Delirious 1983 Avi Xvid-GuySmiley.r33

14.31 MB

 Eddie Murphy Delirious 1983 Avi Xvid-GuySmiley.r34

14.31 MB

 Eddie Murphy Delirious 1983 Avi Xvid-GuySmiley.r35

14.31 MB

 Eddie Murphy Delirious 1983 Avi Xvid-GuySmiley.r36

14.31 MB

 Eddie Murphy Delirious 1983 Avi Xvid-GuySmiley.r37

14.31 MB

 Eddie Murphy Delirious 1983 Avi Xvid-GuySmiley.r38

14.31 MB

 Eddie Murphy Delirious 1983 Avi Xvid-GuySmiley.r39

14.31 MB

 Eddie Murphy Delirious 1983 Avi Xvid-GuySmiley.r40

14.31 MB

 Eddie Murphy Delirious 1983 Avi Xvid-GuySmiley.r41

14.31 MB

 Eddie Murphy Delirious 1983 Avi Xvid-GuySmiley.r42

14.31 MB

 Eddie Murphy Delirious 1983 Avi Xvid-GuySmiley.r43

14.31 MB

 Eddie Murphy Delirious 1983 Avi Xvid-GuySmiley.r44

14.31 MB

 Eddie Murphy Delirious 1983 Avi Xvid-GuySmiley.r45

14.31 MB

 Eddie Murphy Delirious 1983 Avi Xvid-GuySmiley.r46

14.31 MB

 Eddie Murphy Delirious 1983 Avi Xvid-GuySmiley.r47

14.31 MB

 Eddie Murphy Delirious 1983 Avi Xvid-GuySmiley.r48

8.27 MB

 Eddie Murphy Delirious 1983 Avi Xvid-GuySmiley.rar

14.31 MB

 Eddie Murphy Delirious 1983 Avi Xvid-GuySmiley.sfv

7.51 KB
 

tracker

leech seeds
 

Torrent description

General
------------
Format : AVI
Format/Info : Audio Video Interleave
File size : 702 MiB
Duration : 1h 23mn
Overall bit rate : 1 171 Kbps

Video
Format : MPEG-4 Visual
Format settings, BVOP : Yes
Format settings, QPel : No
Format settings, GMC : No warppoints
Format settings, Matrix : Default
Codec ID : XVID
Codec ID/Hint : XviD
Duration : 1h 23mn
Bit rate : 1 029 Kbps
Width : 640 pixels
Height : 480 pixels
Display aspect ratio : 4/3
Frame rate : 29.971 fps
Resolution : 24 bits
Scan type : Progressive
Bits/(Pixel*Frame) : 0.112
Stream size : 617 MiB (88%)

Audio
Format : MPEG Audio
Format version : Version 1
Format profile : Layer 3
Codec ID : 55
Codec ID/Hint : MP3
Duration : 1h 23mn
Bit rate mode : Constant
Bit rate : 128 Kbps
Channel(s) : 2 channels
Sampling rate : 48.0 KHz
Resolution : 16 bits
Stream size : 76.7 MiB (11%)
Alignment : Split accross interleaves
Interleave, duration : 24 ms (0.72 video frame)
--------------------------------------------------------------
Plot:Eddie Murphy's raunchy, raucous stand-up comedy routine is
captured for posterity on this tape.
Not for folks who dislike foul language
--------------------------------------------------------------
IMDB:http://www.imdb.com/title/tt0085474/

related torrents

Torrent name

health leech seeds Size
 

comments (0)

Main Menu