Trance / House / Dance

Hit Mania 2006 [Cue Flac] Dance Italy Compilation

  • Download 5x Faster
  • Download torrent
  • Direct Download
  • Rate this torrent +  |  -
Hit Mania 2006 [Cue Flac] Dance Italy Compilation

Anonymous and Free Direct Download 300GB+


Torrent info

Name:Hit Mania 2006 [Cue Flac] Dance Italy Compilation

Total Size: 540.16 MB

Magnet: Magnet Link

Seeds: 3

Leechers: 2

Stream: Watch Online @ Movie4u

Last Updated: 0000-00-00 00:00:00 (Update Now)

Torrent added: 2009-08-31 04:38:27



VPN For Torrents

Torrent Files List


Hit Mania 2006.log (Size: 540.16 MB) (Files: 5)

 Hit Mania 2006.log

3.98 KB

 V[1].A. - Hit Mania 2006 - Back.jpg

331.83 KB

 V[1].A. - Hit Mania 2006 - Front.jpg

318.69 KB

 Vari - Hit Mania 2006.cue

2.83 KB

 Vari - Hit Mania 2006.flac

539.52 MB
 

Announce URL: http://tracker.tntvillage.scambioetico.org:2710/announce

Torrent description

[color=green]:::->Cover<-:::[/color]

Hit Mania 2006 [Cue Flac] Dance Italy Compilation preview 0
Hit Mania 2006 [Cue Flac] Dance Italy Compilation preview 1

:::->Dati Album<-:::[/color]



Artist: vari
Album:Hit Mania 2006
File Format: Flac
Genre: dance
Uscita : 2006


[color=green]:::->Tracklist<-:::[/color]

1. Martin Solveig - Jealousy
2. Pain & Rossini - Hands up Everybody
3. Tom Novy feat. Michael Marshall - Your Body
4. Bob Sinclair feat. Gary Pine - Love Generation (Antoine Clamara Rmx)
5. Tiga - You Gonna Want Me
6. Mylo vs. Miami Sound Machine - Doctor Pressure
7. Roger Sanchez feat. GTO - Turn on the Music (Axwell Rmx)
8. Oscar G & Ralph Falcon - Dark Beat 2005
9. Joey Negro - Make a Move on me
10. Dave McCullen - B*tch
11. Simply Red - Perfect Love (Hi-Lectro Mix)
12. The Rivera Project - feat. Laura Vane - Some Kind of Heaven
13. Oceandrive - To Dance
14. Cerrone feat. She Belle - Supernature (David Guetta Rmx)
15. Sugarbabes - Push the Button (Psycho Radio Rmx)
16. Mic-Line - Call me Later
17. X-Press 2 feat. Kurt Wagner - Give it
18. Beats and Styles feat. McScholar & Milla - Dance Dance Dance
19. Franz Ferdinand - Do you want to
20. The Rasmus - No Fear
21. Zero Assoluto - Smplicemente (Provenzano DJ Rmx)
22. WWE John Cena and Tha Trademarc - Bad Bad Man
23. Haiducii - I love you more and more
24. Tomorrow Hits
25. TJ Net - HITrings








-----------------------------------------------------------------------------------------------------------------------




[CODE]Exact Audio Copy V0.99 prebeta 3 from 28. July 2007

EAC extraction logfile from 28. January 2008, 15:12

Vari / Hit Mania 2006

Used drive : _NEC DVD_RW ND-3550A Adapter: 5 ID: 0

Read mode : Secure
Utilize accurate stream : Yes
Defeat audio cache : Yes
Make use of C2 pointers : No

Read offset correction : 48
Overread into Lead-In and Lead-Out : No
Fill up missing offset samples with silence : Yes
Delete leading and trailing silent blocks : No
Null samples used in CRC calculations : No
Used interface : Installed external ASPI interface

Used output format : User Defined Encoder
Selected bitrate : 768 kBit/s
Quality : High
Add ID3 tag : No
Command line compressor : C:\Programmi\Exact Audio Copy\FLAC\FLAC.EXE
Additional command line options : -6 -V -T "ARTIST=%a" -T "TITLE=%t" -T "ALBUM=%g" -T "DATE=%y" -T "TRACKNUMBER=%n" -T "GENRE=%m" -T "COMMENT=%e" %s -o %d


TOC of the extracted CD

Track | Start | Length | Start sector | End sector
---------------------------------------------------------
1 | 0:00.00 | 3:18.55 | 0 | 14904
2 | 3:18.55 | 3:35.58 | 14905 | 31087
3 | 6:54.38 | 3:00.04 | 31088 | 44591
4 | 9:54.42 | 3:07.42 | 44592 | 58658
5 | 13:02.09 | 3:08.66 | 58659 | 72824
6 | 16:11.00 | 3:31.16 | 72825 | 88665
7 | 19:42.16 | 3:44.23 | 88666 | 105488
8 | 23:26.39 | 2:35.43 | 105489 | 117156
9 | 26:02.07 | 2:51.66 | 117157 | 130047
10 | 28:53.73 | 2:40.30 | 130048 | 142077
11 | 31:34.28 | 3:34.03 | 142078 | 158130
12 | 35:08.31 | 2:58.24 | 158131 | 171504
13 | 38:06.55 | 3:19.42 | 171505 | 186471
14 | 41:26.22 | 2:42.51 | 186472 | 198672
15 | 44:08.73 | 2:57.47 | 198673 | 211994
16 | 47:06.45 | 2:57.30 | 211995 | 225299
17 | 50:04.00 | 3:29.50 | 225300 | 241024
18 | 53:33.50 | 2:59.24 | 241025 | 254473
19 | 56:32.74 | 3:33.29 | 254474 | 270477
20 | 60:06.28 | 4:02.00 | 270478 | 288627
21 | 64:08.28 | 3:32.03 | 288628 | 304530
22 | 67:40.31 | 3:29.58 | 304531 | 320263
23 | 71:10.14 | 1:26.67 | 320264 | 326780
24 | 72:37.06 | 3:18.74 | 326781 | 341704
25 | 75:56.05 | 2:01.28 | 341705 | 350807


Range status and errors

Selected range

Filename D:\Documents and Settings\salvo.SN116508160310\Documenti\Vari - Hit Mania 2006.wav

Peak level 99.9 %
Range quality 99.9 %
Test CRC D9836D09
Copy CRC D9836D09
Copy OK

No errors occurred


AccurateRip summary

Track 1 not present in database
Track 2 not present in database
Track 3 not present in database
Track 4 not present in database
Track 5 not present in database
Track 6 not present in database
Track 7 not present in database
Track 8 not present in database
Track 9 not present in database
Track 10 not present in database
Track 11 not present in database
Track 12 not present in database
Track 13 not present in database
Track 14 not present in database
Track 15 not present in database
Track 16 not present in database
Track 17 not present in database
Track 18 not present in database
Track 19 not present in database
Track 20 not present in database
Track 21 not present in database
Track 22 not present in database
Track 23 not present in database
Track 24 not present in database
Track 25 not present in database

None of the tracks are present in the AccurateRip database

End of status report
[/CODE]

related torrents

Torrent name

health leech seeds Size
 


comments (0)

Main Menu