Comedy

Dr Strangelove [Eng,Ger,Fre,Spa] [emandoz 1 gig rip]

  • Download 5x Faster
  • Download torrent
  • Direct Download
  • Rate this torrent +  |  -
Dr Strangelove [Eng,Ger,Fre,Spa] [emandoz 1 gig rip]

Anonymous and Direct Download 300GB+ free


Torrent info

Name:Dr Strangelove [Eng,Ger,Fre,Spa] [emandoz 1 gig rip]

Total Size: 1.00 GB

Magnet: Magnet Link

Seeds: 0

Leechers: 0

Stream: Watch Online @ Movie4u

Last Updated: 2010-05-12 02:35:39 (Update Now)

Torrent added: 2009-08-31 04:24:07




Torrent Files List


dr_strangelove.mkv (Size: 1.00 GB) (Files: 4)

 dr_strangelove.mkv

0.98 GB

 dr_strangelove.nfo

3.96 KB

 dr_strangelove_subs.rar

19.36 MB

 what_is_a_emandoz_1gig_rip.nfo

1.18 KB
 

Announce URL: http://tracker.openbittorrent.com:80/announce

Torrent description

emandoz presents:

Dr. Strangelove [Eng,Ger,Fre,Spa] [emandoz 1-gig rip]



Dr. Strangelove
Audio: English, German, French, Spanish
Subs included
Source: PAL DVD

--------------------------------------------------------------------
Dr. Strangelove (1964)

Video
ID : 1
Format : MPEG-4 Visual
Format profile : [email protected]
Format settings, BVOP : No
Format settings, QPel : No
Format settings, GMC : No warppoints
Format settings, Matrix : Default (H.263)
Codec ID : V_MPEG4/ISO/ASP
Codec ID/Info : Advanced Simple Profile
Duration : 1h 30mn
Bit rate : 1 074 Kbps
Width : 714 pixels
Height : 554 pixels
Display aspect ratio : 1.374
Original display aspect ratio : 1.375
Frame rate : 25.000 fps
Resolution : 24 bits
Colorimetry : 4:2:0
Scan type : Progressive
Bits/(Pixel*Frame) : 0.109
Stream size : 696 MiB (69%)
Writing library : XviD 1.1.2 (UTC 2006-11-01)

Audio #1
ID : 2
Format : Vorbis
Format settings, Floor : 1
Codec ID : A_VORBIS
Duration : 1h 30mn
Bit rate mode : Constant
Bit rate : 112 Kbps
Channel(s) : 2 channels
Sampling rate : 48.0 KHz
Stream size : 72.5 MiB (7%)
Writing library : aoTuV Beta 5 (UTC 2006-10-24)
Language : English

Audio #2
ID : 3
Format : Vorbis
Format settings, Floor : 1
Codec ID : A_VORBIS
Duration : 1h 30mn
Bit rate mode : Constant
Bit rate : 112 Kbps
Channel(s) : 2 channels
Sampling rate : 48.0 KHz
Stream size : 72.5 MiB (7%)
Writing library : aoTuV Beta 5 (UTC 2006-10-24)
Language : German

Audio #3
ID : 4
Format : Vorbis
Format settings, Floor : 1
Codec ID : A_VORBIS
Duration : 1h 30mn
Bit rate mode : Constant
Bit rate : 112 Kbps
Channel(s) : 2 channels
Sampling rate : 48.0 KHz
Stream size : 72.5 MiB (7%)
Writing library : aoTuV Beta 5 (UTC 2006-10-24)
Language : French

Audio #4
ID : 5
Format : Vorbis
Format settings, Floor : 1
Codec ID : A_VORBIS
Duration : 1h 30mn
Bit rate mode : Constant
Bit rate : 112 Kbps
Channel(s) : 2 channels
Sampling rate : 48.0 KHz
Stream size : 72.5 MiB (7%)
Writing library : aoTuV Beta 5 (UTC 2006-10-24)
Language : Spanish

Subs
English, French, German, Polish, Czech, Hungarian, Hindi, Turkish, Arabic, Danish, Swedish, Finnish, Dutch, Norwegian, Icelandic, Portugese, Greek, Hebrew, Spanish, Italian, Bulgarian
--------------------------------------------------------------------


Screenshots:

Dr  Strangelove [Eng,Ger,Fre,Spa] [emandoz 1 gig rip] preview 0
Dr  Strangelove [Eng,Ger,Fre,Spa] [emandoz 1 gig rip] preview 1
Dr  Strangelove [Eng,Ger,Fre,Spa] [emandoz 1 gig rip] preview 2
Dr  Strangelove [Eng,Ger,Fre,Spa] [emandoz 1 gig rip] preview 3

related torrents

Torrent name

health leech seeds Size
 


comments (0)

Main Menu