Comedy

Dr Dolittle Million Dollar Mutts AC3 5,1 DVDRip[Eng]2009

  • Download 5x Faster
  • Download torrent
  • Direct Download
  • Rate this torrent +  |  -
Dr Dolittle Million Dollar Mutts AC3 5,1 DVDRip[Eng]2009

Free and Direct Download with Usenet.nl 300GB+ free


Torrent info

Name:Dr Dolittle Million Dollar Mutts AC3 5,1 DVDRip[Eng]2009

Total Size: 1.36 GB

Magnet: Magnet Link

Seeds: 0

Leechers: 0

Stream: Watch Online @ Movie4u

Last Updated: 2012-10-21 03:44:14 (Update Now)

Torrent added: 2009-08-31 04:19:31





Torrent Files List


Dr. Dolittle.Million Dollar Mutts-AC3-5,1-DVDRip[Eng]2009-CD1.jpg (Size: 1.36 GB) (Files: 5)

 Dr. Dolittle.Million Dollar Mutts-AC3-5,1-DVDRip[Eng]2009-CD1.jpg

152.88 KB

 Dr. Dolittle.Million Dollar Mutts-AC3-5,1-DVDRip[Eng]2009-Front.jpg

820.34 KB

 Dr. Dolittle.Million Dollar Mutts-AC3-5,1-DVDRip[Eng]2009-Info.txt

3.19 KB

 Dr. Dolittle.Million Dollar Mutts-AC3-5,1-DVDRip[Eng]2009.avi

1.36 GB

 Torrent downloaded from Demonoid.com.txt

0.05 KB
 

Announce URL:

Torrent description

http://www.imdb.com/title/tt1080926/

http://www.amazon.com/Dr-Dolittle-Million-Dollar-Mutts/dp/B001TUZD9S/ref=sr_1_3?ie=UTF8&s=dvd&qid=1243860246&sr=8-3

User Rating:3.7/10 - 124 votes

Comedy

DVD Release Date: May 19, 2009

Director:Alex Zamm

Cast:Kyla Pratt/Jason Bryden/Doron Bell/Curtis Caravaggio, and others.

Plot:
Kyla Pratt plays Maya, the daughter of the famous Dr. Dolittle who is currently off in China helping the pandas, and she herself
is about to go to pre-veterinary university in San Francisco but keeps finding out that the suitcase she's packing always ends up
unpacked! This is because her dog Lucky can't bear the thought of her leaving and "helps." Viewing an introductory university tape,
Maya finds out that the entire seven-year curriculum entails no immediate work with real animals (while her pet Monkey is annoyed
because he had been watching something else!). French-accented Monkey talks to Maya (as do all animals, because she can understand
them) while creating Etch-A-Sketch masterpieces, and Lucky tries to convince her that there are more than enough animals she can
help on her very own street....

Info:

Covers included.

General
Format : AVI
Format/Info : Audio Video Interleave
File size : 1.36 GiB
Duration : 1h 26mn
Overall bit rate : 2 244 Kbps
Writing application : VirtualDubMod 1.5.4.1 (build 2178/release)
Writing library : VirtualDubMod build 2178/release

Video
Format : MPEG-4 Visual
Format profile : Streaming [email protected]
Format settings, BVOP : Yes
Format settings, QPel : No
Format settings, GMC : No warppoints
Format settings, Matrix : Default
Muxing mode : Packed bitstream
Codec ID : XVID
Codec ID/Hint : XviD
Duration : 1h 26mn
Bit rate : 1 789 Kbps
Width : 720 pixels
Height : 416 pixels
Display aspect ratio : 16/9
Frame rate : 23.976 fps
Resolution : 24 bits
Colorimetry : 4:2:0
Scan type : Progressive
Bits/(Pixel*Frame) : 0.249
Stream size : 1.08 GiB (80%)
Writing library : XviD 50

Audio
Format : AC-3
Format/Info : Audio Coding 3
Codec ID : 2000
Duration : 1h 26mn
Bit rate mode : Constant
Bit rate : 448 Kbps
Channel(s) : 6 channels
Channel positions : Front: L C R, Surround: L R, LFE
Sampling rate : 48.0 KHz
Stream size : 277 MiB (20%)
Alignment : Split accross interleaves
Interleave, duration : 83 ms (2.00 video frames)
Interleave, preload duration : 500 ms
Language : English

Enjoy...

related torrents

Torrent name

health leech seeds Size
 

comments (0)

Main Menu