Comedy

DIRTY ROTTEN SCOUNDRELS H 264 BY STIG

  • Download 5x Faster
  • Download torrent
  • Direct Download
  • Rate this torrent +  |  -
DIRTY ROTTEN SCOUNDRELS H 264 BY STIG

Free and Direct Download with Usenet 300GB+ free


Torrent info

Name:DIRTY ROTTEN SCOUNDRELS H 264 BY STIG

Total Size: 899.99 MB

Magnet: Magnet Link

Seeds: 0

Leechers: 0

Stream: Watch Online @ Movie4u

Last Updated: 2015-08-30 00:48:46 (Update Now)

Torrent added: 2009-08-31 03:55:19




Torrent Files List


MAIN MOVIE.mp4 (Size: 899.99 MB) (Files: 3)

 MAIN MOVIE.mp4

899.55 MB

 Noname.bmp

456.42 KB

 Torrent downloaded from Demonoid.com.txt

0.05 KB
 

tracker

leech seeds
 

Torrent description

One's got a sophisticated, suave and debonair con act. The other's got... well, an act. Together, Steve Martin and Michael Caine are Dirty Rotten Scoundrels, and they're absolutely ruining the Riviera in this wonderfully crafted, absolutely charming, classy and consistently amusing comedy.

Martin is Freddy Benson, a small-time con man sleazing his way through Europe on whatever handouts he can scam. Caine is Lawrence Jamieson, an impeccably dressed and high-minded artiste who thinks Freddy's giving him, and all con men, a bad name. At first, Lawrence agrees to help Freddy spruce up his stunts and his wardrobe. But when it becomes apparent that the Riviera isn't big enough for the both of them, they make a winner-takes-all wager over the fortune of a naïve American soap heiress (Glenne Headly): the first one to 'clean her out' can make the other clear out - and keep the Riviera and its unsuspecting tourists to himself!

Format : MPEG-4
Format profile : Base Media / Version 2
Codec ID : mp42
File size : 900 MiB
Duration : 1h 45mn
Overall bit rate : 1 189 Kbps
Encoded date : UTC 2009-07-26 08:22:37
Tagged date : UTC 2009-07-26 13:18:57
Writing application : HandBrake 0.9.3 2008112300

Video
ID : 1
Format : AVC
Format/Info : Advanced Video Codec
Format profile : Main@L4.0
Format settings, CABAC : Yes
Format settings, ReFrames : 3 frames
Codec ID : avc1
Codec ID/Info : Advanced Video Coding
Duration : 1h 45mn
Bit rate mode : Variable
Bit rate : 1 025 Kbps
Width : 716 pixels
Height : 552 pixels
Display aspect ratio : 16/9
Frame rate mode : Variable
Frame rate : 25.000 fps
Minimum frame rate : 12.500 fps
Maximum frame rate : 25.000 fps
Resolution : 24 bits
Colorimetry : 4:2:0
Scan type : Progressive
Bits/(Pixel*Frame) : 0.104
Stream size : 776 MiB (86%)
Writing library : x264 core 65


Audio
ID : 2
Format : AAC
Format/Info : Advanced Audio Codec
Format version : Version 4
Format profile : LC
Format settings, SBR : No
Codec ID : 40
Duration : 1h 45mn
Bit rate mode : Variable
Bit rate : 160 Kbps
Maximum bit rate : 226 Kbps
Channel(s) : 2 channels
Channel positions : L R
Sampling rate : 48.0 KHz
Resolution : 16 bits
Stream size : 121 MiB (13%)
Language : English
Encoded date : UTC 2009-07-26 08:22:37
Tagged date : UTC 2009-07-26 13:18:56

related torrents

Torrent name

health leech seeds Size
 

comments (0)

Main Menu