Comedy

Daddy Day Camp harry989

  • Download 5x Faster
  • Download torrent
  • Direct Download
  • Rate this torrent +  |  -
Daddy Day Camp harry989

Free and Direct Download with Usenet.nl 300GB+ free


Torrent info

Name:Daddy Day Camp harry989

Total Size: 852.80 MB

Magnet: Magnet Link

Seeds: 0

Leechers: 0

Stream: Watch Online @ Movie4u

Last Updated: 2011-07-13 12:13:50 (Update Now)

Torrent added: 2009-08-31 03:04:46





Torrent Files List


Daddy Day Camp [WS].avi (Size: 852.80 MB) (Files: 3)

 Daddy Day Camp [WS].avi

852.80 MB

 nfo.nfo

3.76 KB

 tracked_by_h33t_com.txt

0.02 KB
 

Announce URL: http://tracker.publicbt.com/announce

Torrent description

Daddy Day Camp harry989 preview 0

*******************************************************************************
Daddy Day Camp
*******************************************************************************

-------------------------------------------------------------------------------
General Information
-------------------------------------------------------------------------------
Format : AVI
Format/Info : Audio Video Interleave
File size : 853 MiB
Duration : 1h 28mn
Overall bit rate : 1 341 Kbps
Writing application : Lavf51.12.1

Video
ID : 0
Format : MPEG-4 Visual
Format profile : [email protected]
Format settings, BVOP : No
Format settings, QPel : No
Format settings, GMC : No warppoints
Format settings, Matrix : Default (H.263)
Codec ID : DX50
Codec ID/Hint : DivX 5
Duration : 1h 28mn
Bit rate : 1 200 Kbps
Width : 720 pixels
Height : 480 pixels
Display aspect ratio : 1.500
Frame rate : 23.976 fps
Standard : NTSC
Resolution : 24 bits
Colorimetry : 4:2:0
Scan type : Progressive
Bits/(Pixel*Frame) : 0.145
Stream size : 763 MiB (90%)
Writing library : Lavc51.40.4

Audio
ID : 1
Format : MPEG Audio
Format version : Version 1
Format profile : Layer 3
Codec ID : 55
Codec ID/Hint : MP3
Duration : 1h 28mn
Bit rate mode : Constant
Bit rate : 128 Kbps
Channel(s) : 2 channels
Sampling rate : 48.0 KHz
Resolution : 16 bits
Stream size : 81.4 MiB (10%)
Alignment : Aligned on interleaves
Interleave, duration : 24 ms (0.58 video frame)
Interleave, preload duration : 24 ms
Writing library : LAME3.97
Source...............: dvdrip
Genre................: Comedy
Movie Information....: http://www.imdb.com/title/tt0462244/

-------------------------------------------------------------------------------
Release Notes
-------------------------------------------------------------------------------
Director.....Fred Savage


Actors/Actesses...Cuba Gooding, Jr.
Lochlyn Munro
Richard Gant
Tamala Jones
Paul Rae

Directed by one-time child star Fred Savage, Daddy Day Camp, the sequel to
Eddie Murphy's Daddy Day Care, stars Cuba Gooding Jr. and Paul Rae as Charlie
Hinton and Phil Ryerson, a pair of fathers who attempt to keep their summer
camp afloat even though they are under dire economic strain. In order to help
improve the financial situation, and to whip together a group of children who
have a problem with following orders, Hinton brings in his military trained
father (Richard Gant), even though he and his father have been on the outs.
Soon the campers, and the fathers, are involved in a series of adventures that
will make the camp solvent, and help mend broken relationships

Hash : BED4CDEF89B0C7389DA858ADDC488ED487C7B356


trackers.............: http//h33t.com:3310/announce

.............: http://tracker.openbittorrent.com:80/announce

.............: http://tracker.publicbt.com:80/announce



http://www.tornster.com

http://www.darksiderg.com
-------------------------------------------------------------------------------

related torrents

Torrent name

health leech seeds Size
 

comments (0)

Main Menu