Comedy

Coming to America RICO

  • Download 5x Faster
  • Download torrent
  • Direct Download
  • Rate this torrent +  |  -
Coming to America RICO

Download FREE And Anonymously


Torrent info

Name:Coming to America RICO

Total Size: 700.48 MB

Magnet: Magnet Link

Seeds: 0

Leechers: 0

Stream: Watch Full Movie @ Movie4u

Last Updated: 2009-12-03 23:28:02 (Update Now)

Torrent added: 2009-08-31 02:43:56



VPN For Torrents

Torrent Files List


Coming to America.1988.XviD-RICO.avi (Size: 700.48 MB) (Files: 4)

 Coming to America.1988.XviD-RICO.avi

700.37 MB

 Coming to America.1988.XviD-RICO.jpg

55.77 KB

 CominG to America.1988.XviD-RICO.sub

50.71 KB

 tracked_by_h33t_com.txt

0.02 KB
 

Announce URL: http://www.h33t.com:3310/announce

Torrent description

Coming to America[H33T][-RICO]General
Complete name : G:\\Movies\\Coming to America_-RICO\\Coming to America.1988.XviD-RICO.avi
Format : AVI
Format/Info : Audio Video Interleave
File size : 700 MiB
Duration : 1h 56mn
Overall bit rate : 838 Kbps
Writing application : VirtualDubMod 1.5.4.1 (build 2178/release)
Writing library : VirtualDubMod build 2178/release

Video
Format : MPEG-4 Visual
Format profile : [email protected]
Format settings, BVOP : Yes
Format settings, QPel : No
Format settings, GMC : No warppoints
Format settings, Matrix : Custom
Codec ID : XVID
Codec ID/Hint : XviD
Duration : 1h 56mn
Bit rate : 698 Kbps
Width : 480 pixels
Height : 256 pixels
Display aspect ratio : 1.875
Frame rate : 23.976 fps
Resolution : 24 bits
Colorimetry : 4:2:0
Scan type : Progressive
Bits/(Pixel*Frame) : 0.237
Stream size : 583 MiB (83%)
Writing library : XviD 0.0.09 (UTC 2003-03-25)

Audio
Format : MPEG Audio
Format version : Version 1
Format profile : Layer 3
Codec ID : 55
Codec ID/Hint : MP3
Duration : 1h 56mn
Bit rate mode : Variable
Bit rate : 128 Kbps
Channel(s) : 2 channels
Sampling rate : 48.0 KHz
Resolution : 16 bits
Stream size : 106 MiB (15%)
Alignment : Aligned on interleaves
Interleave, duration : 24 ms (0.58 video frame)
Interleave, preload duration : 144 ms
Writing library : LAME3.90.
Encoding settings : ABR

related torrents

Torrent name

health leech seeds Size

Coming To America

150 21 4.00 GB 0

Coming to America (Ipod)

0 0 454.58 MB 0
 


comments (0)

Main Menu

 

script data-cfasync="false" src="//d2ghscazvn398x.cloudfront.net/?cshgd=690275">