Sports related

Australian Football League 2009 Round 22 Melbourne VS St Kilda 30 08 2009

  • Download 5x Faster
  • Download torrent
  • Direct Download
  • Rate this torrent +  |  -
Australian Football League 2009 Round 22 Melbourne VS St Kilda 30 08 2009

Free and Direct Download with Usenet 300GB+ free


Torrent info

Name:Australian Football League 2009 Round 22 Melbourne VS St Kilda 30 08 2009

Total Size: 1.37 GB

Magnet: Magnet Link

Seeds: 0

Leechers: 0

Stream: Watch Online @ Movie4u

Last Updated: 2015-09-09 14:11:13 (Update Now)

Torrent added: 2009-08-31 02:39:50




Torrent Files List


Melbourne VS St Kilda.avi (Size: 1.37 GB) (Files: 5)

 Melbourne VS St Kilda.avi

1.37 GB

 poster.png

289.25 KB

 03.jpg

33.72 KB

 02.jpg

33.14 KB

 01.jpg

31.16 KB
 

tracker

leech seeds
 

Torrent description

Australian Football League 2009   Round 22   Melbourne VS St   Kilda   30 08 2009 preview 0





General
Complete name : Melbourne VS St Kilda.avi
Format : AVI
Format/Info : Audio Video Interleave
File size : 1.37 GiB
Duration : 1h 41mn
Overall bit rate : 1 923 Kbps
Writing application : VirtualDubMod 1.5.4.1 (build 2178/release)
Writing library : VirtualDubMod build 2178/release

Video
ID : 0
Format : MPEG-4 Visual
Format profile : Streaming Video@L1
Format settings, BVOP : Yes
Format settings, QPel : No
Format settings, GMC : No warppoints
Format settings, Matrix : Default (H.263)
Muxing mode : Packed bitstream
Codec ID : XVID
Codec ID/Hint : XviD
Duration : 1h 41mn
Bit rate : 1 723 Kbps
Width : 720 pixels
Height : 432 pixels
Display aspect ratio : 1.667
Frame rate : 25.000 fps
Resolution : 24 bits
Colorimetry : 4:2:0
Scan type : Progressive
Bits/(Pixel*Frame) : 0.222
Stream size : 1.23 GiB (90%)
Writing library : XviD 1.2.1 (UTC 2008-12-04)

Audio
ID : 1
Format : MPEG Audio
Format version : Version 1
Format profile : Layer 3
Codec ID : 55
Codec ID/Hint : MP3
Duration : 1h 41mn
Bit rate mode : Constant
Bit rate : 192 Kbps
Channel(s) : 2 channels
Sampling rate : 44.1 KHz
Resolution : 16 bits
Stream size : 140 MiB (10%)
Alignment : Split accross interleaves
Interleave, duration : 80 ms (2.00 video frames)
Interleave, preload duration : 500 ms






Screenshots:

Australian Football League 2009   Round 22   Melbourne VS St   Kilda   30 08 2009 preview 1

Australian Football League 2009   Round 22   Melbourne VS St   Kilda   30 08 2009 preview 2


related torrents

Torrent name

health leech seeds Size
 

comments (0)

Main Menu