Comedy

Chooch DVDRiP XViD SB0[ org]

  • Download 5x Faster
  • Download torrent
  • Direct Download
  • Rate this torrent +  |  -
Chooch DVDRiP XViD SB0[ org]

Anonymous and Free Direct Download 300GB+


Torrent info

Name:Chooch DVDRiP XViD SB0[ org]

Total Size: 699.78 MB

Magnet: Magnet Link

Seeds: 0

Leechers: 0

Stream: Watch Online @ Movie4u

Last Updated: 2009-12-03 23:19:35 (Update Now)

Torrent added: 2009-08-31 02:18:21



VPN For Torrents

Torrent Files List


Chooch DVDRiP XViD SB0.avi (Size: 699.78 MB) (Files: 4)

 Chooch DVDRiP XViD SB0.avi

699.77 MB

 Chooch DVDRiP XViD SB0.nfo

5.05 KB

 Chooch DVDRiP XViD SB0.sfv

0.42 KB

 seedmore.nfo

5.03 KB
 

Announce URL: http://www.seedmore.org/announce.php?passkey=smpk420110802e147eecf9b07912dee8

Torrent description

~ Seedmore ~

Hi m8! Were you thinking about joining a private tracker, well what are you waiting for!! we are a Italian Mob theme website with a new twist ;)
we are focused on fast uploads, new content, and above all: user security ;)
are you also tired of malware and Hit & Runners,:(
Are you an experienced uploader Huh, See forums for how to apply.
well what are you waiting for doors will not be open for long so start typing to join: http://tinyurl.com/seedmore NOW!!!!!!

I want to see you at Seedmore.org :)





*******************************************************************************

Chooch DVDRiP XViD SB0

*******************************************************************************



-------------------------------------------------------------------------------

General Information

-------------------------------------------------------------------------------

Type.................: Movie

File Validation......: SFV







Movie Information....: http://www.imdb.com/title/tt0369330/



-------------------------------------------------------------------------------

Post Information

-------------------------------------------------------------------------------

Posted by............: SB0



-------------------------------------------------------------------------------

Release Notes

-------------------------------------------------------------------------------

General

Complete name : Chooch DVDRiP XViD SB0.avi

Format : AVI

Format/Info : Audio Video Interleave

File size : 700 MiB

Duration : 1h 19mn

Overall bit rate : 1 233 Kbps

Writing application : VirtualDubMod 1.5.4.1 (build 2178/release)

Writing library : VirtualDubMod build 2178/release



Video

Format : MPEG-4 Visual

Format profile : Streaming [email protected]

Format settings, BVOP : Yes

Format settings, QPel : No

Format settings, GMC : No warppoints

Format settings, Matrix : Custom

Codec ID : XVID

Codec ID/Hint : XviD

Duration : 1h 19mn

Bit rate : 1 128 Kbps

Width : 608 pixels

Height : 352 pixels

Display aspect ratio : 16/9

Frame rate : 23.976 fps

Resolution : 24 bits

Colorimetry : 4:2:0

Scan type : Progressive

Bits/(Pixel*Frame) : 0.220

Stream size : 640 MiB (91%)

Writing library : XviD 1.2.1 (UTC 2008-12-04)



Audio

Format : MPEG Audio

Format version : Version 1

Format profile : Layer 3

Codec ID : 55

Codec ID/Hint : MP3

Duration : 1h 19mn

Bit rate mode : Variable

Bit rate : 93.1 Kbps

Minimum bit rate : 112 Kbps

Channel(s) : 2 channels

Sampling rate : 44.1 KHz

Resolution : 16 bits

Stream size : 52.8 MiB (8%)

Alignment : Aligned on interleaves

Interleave, duration : 26 ms (0.63 video frame)

Interleave, preload duration : 511 ms

Writing library : LAME3.98r

Encoding settings : ABR



The life of Queens resident Dino Condito is about to take a surprising turn.

After letting down his softball team by striking out in the bottom of the ninth

against Hoboken, his crew brands him the chooch. Trying to cheer up his cousin

Dino, Jubilene Condito cashes in his savings from his first holy communion and

springs for a vacation to Cancun. You mean leave Queens? asks Dino, as if the

thought had never occurred to him. But there's a mix-up on the way to the

airport involving a mysterious bag of money. As soon as Dino and Jube land in

Mexico, they're abducted by a pair of thugs and left in the desert at the mercy

of a trio of soldiers. It takes reuniting Dino's old Queens crew, including

Dino's beloved pet dachsund, to save the two cousins. Only after a jail bust,

donkey ride, chicken coop explosion, and a life-changing love affair at the

local bordello does the crew finally arrive to save the day. Returning home in

triumphant glory with his reunited crew and newfound love Ladonna, Dino

discovers the meaning of family, friendship and neighborhood.

related torrents

Torrent name

health leech seeds Size

Chooch DVDRiP XViD SB0

0 0 699.78 MB 0

Chooch DVDRiP XViD SB0

0 0 699.78 MB 0
 


comments (0)

Main Menu