Comedy

Cheech & Chong's Nice Dreams DVDRip Xvid 1981[

  • Download 5x Faster
  • Download torrent
  • Direct Download
  • Rate this torrent +  |  -
Cheech & Chong's Nice Dreams DVDRip Xvid 1981[

Anonymous and Free Direct Download 300GB+


Torrent info

Name:Cheech & Chong's Nice Dreams DVDRip Xvid 1981[

Total Size: 707.40 MB

Magnet: Magnet Link

Seeds: 0

Leechers: 0

Stream: Watch Online @ Movie4u

Last Updated: 2010-09-27 17:38:56 (Update Now)

Torrent added: 2009-08-31 02:10:28



VPN For Torrents

Torrent Files List


Cheech & Chong - Nice Dreams.r00 (Size: 707.40 MB) (Files: 52)

 Cheech & Chong - Nice Dreams.r00

14.31 MB

 Cheech & Chong - Nice Dreams.r01

14.31 MB

 Cheech & Chong - Nice Dreams.r02

14.31 MB

 Cheech & Chong - Nice Dreams.r03

14.31 MB

 Cheech & Chong - Nice Dreams.r04

14.31 MB

 Cheech & Chong - Nice Dreams.r05

14.31 MB

 Cheech & Chong - Nice Dreams.r06

14.31 MB

 Cheech & Chong - Nice Dreams.r07

14.31 MB

 Cheech & Chong - Nice Dreams.r08

14.31 MB

 Cheech & Chong - Nice Dreams.r09

14.31 MB

 Cheech & Chong - Nice Dreams.r10

14.31 MB

 Cheech & Chong - Nice Dreams.r11

14.31 MB

 Cheech & Chong - Nice Dreams.r12

14.31 MB

 Cheech & Chong - Nice Dreams.r13

14.31 MB

 Cheech & Chong - Nice Dreams.r14

14.31 MB

 Cheech & Chong - Nice Dreams.r15

14.31 MB

 Cheech & Chong - Nice Dreams.r16

14.31 MB

 Cheech & Chong - Nice Dreams.r17

14.31 MB

 Cheech & Chong - Nice Dreams.r18

14.31 MB

 Cheech & Chong - Nice Dreams.r19

14.31 MB

 Cheech & Chong - Nice Dreams.r20

14.31 MB

 Cheech & Chong - Nice Dreams.r21

14.31 MB

 Cheech & Chong - Nice Dreams.r22

14.31 MB

 Cheech & Chong - Nice Dreams.r23

14.31 MB

 Cheech & Chong - Nice Dreams.r24

14.31 MB

 Cheech & Chong - Nice Dreams.r25

14.31 MB

 Cheech & Chong - Nice Dreams.r26

14.31 MB

 Cheech & Chong - Nice Dreams.r27

14.31 MB

 Cheech & Chong - Nice Dreams.r28

14.31 MB

 Cheech & Chong - Nice Dreams.r29

14.31 MB

 Cheech & Chong - Nice Dreams.r30

14.31 MB

 Cheech & Chong - Nice Dreams.r31

14.31 MB

 Cheech & Chong - Nice Dreams.r32

14.31 MB

 Cheech & Chong - Nice Dreams.r33

14.31 MB

 Cheech & Chong - Nice Dreams.r34

14.31 MB

 Cheech & Chong - Nice Dreams.r35

14.31 MB

 Cheech & Chong - Nice Dreams.r36

14.31 MB

 Cheech & Chong - Nice Dreams.r37

14.31 MB

 Cheech & Chong - Nice Dreams.r38

14.31 MB

 Cheech & Chong - Nice Dreams.r39

14.31 MB

 Cheech & Chong - Nice Dreams.r40

14.31 MB

 Cheech & Chong - Nice Dreams.r41

14.31 MB

 Cheech & Chong - Nice Dreams.r42

14.31 MB

 Cheech & Chong - Nice Dreams.r43

14.31 MB

 Cheech & Chong - Nice Dreams.r44

14.31 MB

 Cheech & Chong - Nice Dreams.r45

14.31 MB

 Cheech & Chong - Nice Dreams.r46

14.31 MB

 Cheech & Chong - Nice Dreams.r47

14.31 MB

 Cheech & Chong - Nice Dreams.r48

6.44 MB

 Cheech & Chong - Nice Dreams.rar

14.31 MB

 Cheech & Chong - Nice Dreams.sfv

5.71 KB

 Cheech & Chongs - Nice Dreams.nfo

2.78 KB
 

Announce URL: http://tracker.ilovetorrents.com/announce.php

Torrent description

Format : AVI
Format/Info : Audio Video Interleave
File size : 700 MiB
Duration : 1h 27mn
Overall bit rate : 1 123 Kbps
Writing application : VirtualDubMod 1.5.10.2 (build 2540/release)
Writing library : VirtualDubMod build 2540/release

Video
Format : MPEG-4 Visual
Format profile : Streaming [email protected]
Format settings, BVOP : Yes
Format settings, QPel : No
Format settings, GMC : No warppoints
Format settings, Matrix : Default
Muxing mode : Packed bitstream
Codec ID : XVID
Codec ID/Hint : XviD
Duration : 1h 27mn
Bit rate : 1 038 Kbps
Width : 592 pixels
Height : 320 pixels
Display aspect ratio : 1.850
Frame rate : 23.976 fps
Resolution : 24 bits
Colorimetry : 4:2:0
Scan type : Progressive
Bits/(Pixel*Frame) : 0.229
Stream size : 648 MiB (92%)
Writing library : XviD 1.1.2 (UTC 2006-11-01)

Audio
Format : MPEG Audio
Format version : Version 1
Format profile : Layer 3
Codec ID : 55
Codec ID/Hint : MP3
Duration : 1h 27mn
Bit rate mode : Variable
Bit rate : 71.9 Kbps
Minimum bit rate : 32.0 Kbps
Channel(s) : 2 channels
Sampling rate : 48.0 KHz
Resolution : 16 bits
Stream size : 44.9 MiB (6%)
Alignment : Aligned on interleaves
Interleave, duration : 24 ms (0.58 video frame)
Interleave, preload duration : 256 ms
Writing library : LAME3.97b
Encoding settings : VBR (mtrh)
-------------------------------------------------------------------------------


Plot:

Two pot-heads work on an ice-cream truck serving up specially treated
confections that are more than just a hit with the kids.



Year: 1981

Genres: Comedy

Running Time: 1 hr. 28 min.

MPAA Rating: R

Distributors: Sony Pictures Home Entertainment

Yahoo Movies: http://movies.yahoo.com/movie/1800100203/info

related torrents

Torrent name

health leech seeds Size
 


comments (0)

Main Menu