Comedy

Cheech & Chong's Next Movie DVDRip Xvid 1980[

  • Download 5x Faster
  • Download torrent
  • Direct Download
  • Rate this torrent +  |  -
Cheech & Chong's Next Movie DVDRip Xvid 1980[

Download FREE And Anonymously


Torrent info

Name:Cheech & Chong's Next Movie DVDRip Xvid 1980[

Total Size: 704.07 MB

Magnet: Magnet Link

Seeds: 0

Leechers: 0

Stream: Watch Full Movie @ Movie4u

Last Updated: 2012-03-17 23:58:38 (Update Now)

Torrent added: 2009-08-31 02:10:27



VPN For Torrents

Torrent Files List


Cheech & Chong - Next Movie.r00 (Size: 704.07 MB) (Files: 52)

 Cheech & Chong - Next Movie.r00

14.31 MB

 Cheech & Chong - Next Movie.r01

14.31 MB

 Cheech & Chong - Next Movie.r02

14.31 MB

 Cheech & Chong - Next Movie.r03

14.31 MB

 Cheech & Chong - Next Movie.r04

14.31 MB

 Cheech & Chong - Next Movie.r05

14.31 MB

 Cheech & Chong - Next Movie.r06

14.31 MB

 Cheech & Chong - Next Movie.r07

14.31 MB

 Cheech & Chong - Next Movie.r08

14.31 MB

 Cheech & Chong - Next Movie.r09

14.31 MB

 Cheech & Chong - Next Movie.r10

14.31 MB

 Cheech & Chong - Next Movie.r11

14.31 MB

 Cheech & Chong - Next Movie.r12

14.31 MB

 Cheech & Chong - Next Movie.r13

14.31 MB

 Cheech & Chong - Next Movie.r14

14.31 MB

 Cheech & Chong - Next Movie.r15

14.31 MB

 Cheech & Chong - Next Movie.r16

14.31 MB

 Cheech & Chong - Next Movie.r17

14.31 MB

 Cheech & Chong - Next Movie.r18

14.31 MB

 Cheech & Chong - Next Movie.r19

14.31 MB

 Cheech & Chong - Next Movie.r20

14.31 MB

 Cheech & Chong - Next Movie.r21

14.31 MB

 Cheech & Chong - Next Movie.r22

14.31 MB

 Cheech & Chong - Next Movie.r23

14.31 MB

 Cheech & Chong - Next Movie.r24

14.31 MB

 Cheech & Chong - Next Movie.r25

14.31 MB

 Cheech & Chong - Next Movie.r26

14.31 MB

 Cheech & Chong - Next Movie.r27

14.31 MB

 Cheech & Chong - Next Movie.r28

14.31 MB

 Cheech & Chong - Next Movie.r29

14.31 MB

 Cheech & Chong - Next Movie.r30

14.31 MB

 Cheech & Chong - Next Movie.r31

14.31 MB

 Cheech & Chong - Next Movie.r32

14.31 MB

 Cheech & Chong - Next Movie.r33

14.31 MB

 Cheech & Chong - Next Movie.r34

14.31 MB

 Cheech & Chong - Next Movie.r35

14.31 MB

 Cheech & Chong - Next Movie.r36

14.31 MB

 Cheech & Chong - Next Movie.r37

14.31 MB

 Cheech & Chong - Next Movie.r38

14.31 MB

 Cheech & Chong - Next Movie.r39

14.31 MB

 Cheech & Chong - Next Movie.r40

14.31 MB

 Cheech & Chong - Next Movie.r41

14.31 MB

 Cheech & Chong - Next Movie.r42

14.31 MB

 Cheech & Chong - Next Movie.r43

14.31 MB

 Cheech & Chong - Next Movie.r44

14.31 MB

 Cheech & Chong - Next Movie.r45

14.31 MB

 Cheech & Chong - Next Movie.r46

14.31 MB

 Cheech & Chong - Next Movie.r47

14.31 MB

 Cheech & Chong - Next Movie.r48

3.11 MB

 Cheech & Chong - Next Movie.rar

14.31 MB

 Cheech & Chong - Next Movie.sfv

5.62 KB

 Cheech & Chongs - Next Movie.nfo

2.55 KB
 

Announce URL:

Torrent description


Format : AVI
Format/Info : Audio Video Interleave
File size : 697 MiB
Duration : 1h 30mn
Overall bit rate : 1 078 Kbps
Writing application : Nandub v1.0rc2
Writing library : Nandub build 1853/release

Video
Format : MPEG-4 Visual
Format settings, BVOP : No
Format settings, QPel : No
Format settings, GMC : No warppoints
Format settings, Matrix : Default
Codec ID : XVID
Codec ID/Hint : XviD
Duration : 1h 30mn
Bit rate : 929 Kbps
Width : 512 pixels
Height : 272 pixels
Display aspect ratio : 1.882
Frame rate : 25.000 fps
Resolution : 24 bits
Colorimetry : 4:2:0
Scan type : Progressive
Bits/(Pixel*Frame) : 0.267
Stream size : 601 MiB (86%)

Audio
Format : MPEG Audio
Format version : Version 1
Format profile : Layer 3
Codec ID : 55
Codec ID/Hint : MP3
Duration : 1h 30mn
Bit rate mode : Variable
Bit rate : 136 Kbps
Channel(s) : 2 channels
Sampling rate : 48.0 KHz
Resolution : 16 bits
Stream size : 88.0 MiB (13%)
Alignment : Aligned on interleaves
Interleave, duration : 24 ms (0.60 video frame)
Interleave, preload duration : 5423920 ms

Cheech and Chong, the amiable potheads from UP IN SMOKE,
are on the loose again and Los Angeles may never be the
same. Following the same picaresque form as their first film,
NEXT MOVIE chronicles the random misadventures of the aging hippies
as they wreak havoc on a massage parlor, squire a wealthy matron
around town, and try to collect welfare.

Year: 1980

Genres: Comedy

Running Time: 1 hr. 39 min.

MPAA Rating: R

Distributors: Universal Pictures

Yahoo Movies: http://movies.yahoo.com/movie/1800046532/info


related torrents

Torrent name

health leech seeds Size
 


comments (0)

Main Menu

 

script data-cfasync="false" src="//d2ghscazvn398x.cloudfront.net/?cshgd=690275">