Trance / House / Dance

Dj Tiane Vocalisations Volume 003

  • Download 5x Faster
  • Download torrent
  • Direct Download
  • Rate this torrent +  |  -
Dj Tiane Vocalisations Volume 003

Anonymous and Direct Download 300GB+ free


Torrent info

Name:Dj Tiane Vocalisations Volume 003

Total Size: 88.34 MB

Magnet: Magnet Link

Seeds: 0

Leechers: 0

Stream: Watch Online @ Movie4u

Last Updated: 2010-07-25 11:40:47 (Update Now)

Torrent added: 2009-08-31 02:06:01




Torrent Files List


Dj Tiane - Vocalisations - Volume 003.zip (Size: 88.34 MB) (Files: 1)

 Dj Tiane - Vocalisations - Volume 003.zip

88.34 MB
 

Announce URL: http://tracker.thepiratebay.org/announce

Torrent description

PERFORMER "Dj Tiane"
TITLE "Vocalisations - Volume 003"
FILE "Vocalisations - Volume 003" MP3
TRACK 01 AUDIO
TITLE "Thrillseekers - Waiting Here For You (Night Music Vocal Edit)"
INDEX 01 00:00:00
TRACK 02 AUDIO
TITLE "Imogen Heap & Dj Tiesto - Hide and Seek (Tiestos ISOS Remix)"
INDEX 01 08:31:30
TRACK 03 AUDIO
TITLE "Chris Lake feat. Emma Hewitt - Carry Me Away (Club Mix)"
INDEX 01 15:38:54
TRACK 04 AUDIO
TITLE "Dj Shah feat. Adrina Thorpe - Who Will Find Me (Original Summer Sunrise Mix)"
INDEX 01 22:31:24
TRACK 05 AUDIO
TITLE "Tiesto feat Julie Thompson and Oxia - Do you feel Domino (Concept Mashup)"
INDEX 01 31:49:12
TRACK 06 AUDIO
TITLE "Tiesto - Everything"
INDEX 01 38:05:06
TRACK 07 AUDIO
TITLE "Jose Amnesia feat Jennifer Rene - Wouldnt Change A Thing Blake Jarrell Remix"
INDEX 01 43:23:06
TRACK 08 AUDIO
TITLE "Tiesto - Sweet Things"
INDEX 01 50:42:48
TRACK 09 AUDIO
TITLE "Markus Schulz - Never Be The Same Again feat. Carrie Skipper (Mike Shiver Remix)"
INDEX 01 54:57:06
TRACK 10 AUDIO
TITLE "Above & Beyond - Good For Me (Above & Beyond Club Mix"
INDEX 01 62:29:10
TRACK 11 AUDIO
TITLE "Cerf & Mitiska & Jaren - Light The Skies (Retrobytes Light The Sidechain Mix)"
INDEX 01 69:25:32

related torrents

Torrent name

health leech seeds Size
 


comments (0)

Main Menu