Trance / House / Dance

Dj Tiane Dj Dean Tribute zip

  • Download 5x Faster
  • Download torrent
  • Direct Download
  • Rate this torrent +  |  -
Dj Tiane Dj Dean Tribute zip

Free and Direct Download with Usenet.nl 300GB+ free


Torrent info

Name:Dj Tiane Dj Dean Tribute zip

Total Size: 86.64 MB

Magnet: Magnet Link

Seeds: 0

Leechers: 0

Stream: Watch Online @ Movie4u

Last Updated: 2014-08-20 22:48:33 (Update Now)

Torrent added: 2009-08-31 02:05:51





Torrent Files List


Dj Tiane - Dj Dean Tribute.zip (Size: 86.64 MB) (Files: 1)

 Dj Tiane - Dj Dean Tribute.zip

86.64 MB
 

Announce URL:

Torrent description

PERFORMER "Dj Tiane"
TITLE "Dj Dean Tribute"
FILE "Dj Tiane - Dj Dean Tribute.mp3" MP3
TRACK 01 AUDIO
TITLE "Dj Dean - If I Could Be You (Dj Dean Club Mix)"
INDEX 01 00:00:00
TRACK 02 AUDIO
TITLE "Dj Dean - Dreamworld (Club Mix)"
INDEX 01 06:29:30
TRACK 03 AUDIO
TITLE "Dj Dean - Music Is My Life (Dave Joy Remix)"
INDEX 01 11:00:54
TRACK 04 AUDIO
TITLE "Dj Dean pres. Barbarez - Its A dream"
INDEX 01 17:58:24
TRACK 05 AUDIO
TITLE "Angel One - Into your Eyes (Dj Dean vs. Dj Deelay)"
INDEX 01 24:36:12
TRACK 06 AUDIO
TITLE "DJ Dean - Play it Hard (DJ Dean Flying Away)"
INDEX 01 30:16:06
TRACK 07 AUDIO
TITLE "Accuface - Let Your Mind Fly (Dj Dean Remix)"
INDEX 01 35:27:06
TRACK 08 AUDIO
TITLE "Dj Dean - Kick Off (Mainfield Hyperspace Remix)"
INDEX 01 40:05:48
TRACK 09 AUDIO
TITLE "United Beats - Por Que No (Dj Dean Remix)"
INDEX 01 46:23:06
TRACK 10 AUDIO
TITLE "Murphy Brown - Energizer 2002 (DJ Dean Remix)"
INDEX 01 53:33:10
TRACK 11 AUDIO
TITLE "Dj Digress - The Frequency (DJ Dean Remix)"
INDEX 01 59:47:32
TRACK 12 AUDIO
TITLE "Dj Dean - Ballanation 3 (The Last Crusade)"
INDEX 01 65:03:48
TRACK 13 AUDIO
TITLE "HARDHEADZ - Hardhouse Generation (Dj Dean Remix)"
INDEX 01 71:13:48


related torrents

Torrent name

health leech seeds Size

Dj Dean Protect Your Ears

0 11 99.00 MB 0
 

comments (0)

Main Menu