Comedy

Cem Yilmaz in G O R A Filmi

  • Download 5x Faster
  • Download torrent
  • Direct Download
  • Rate this torrent +  |  -
Cem Yilmaz in G O R A Filmi

Anonymous and Free Direct Download 300GB+


Torrent info

Name:Cem Yilmaz in G O R A Filmi

Total Size: 1.37 GB

Magnet: Magnet Link

Seeds: 0

Leechers: 0

Stream: Watch Online @ Movie4u

Last Updated: 2016-04-14 11:30:13 (Update Now)

Torrent added: 2009-08-31 01:55:31



VPN For Torrents

Torrent Files List


G.O.R.A.avi (Size: 1.37 GB) (Files: 1)

 G.O.R.A.avi

1.37 GB
 

tracker

leech seeds
 

Torrent description

Format : AVI
Format/Info : Audio Video Interleave
File size : 1.37 GiB
Duration : 2h 3mn
Overall bit rate : 1 590 Kbps

Video
Format : MPEG-4 Visual
Format profile : [email protected]
Format settings, BVOP : Yes
Format settings, QPel : No
Format settings, GMC : No warppoints
Format settings, Matrix : Custom
Codec ID : XVID
Codec ID/Hint : XviD
Duration : 2h 3mn
Bit rate : 1 199 Kbps
Width : 640 pixels
Height : 368 pixels
Display aspect ratio : 16/9
Frame rate : 25.000 fps
Resolution : 24 bits
Colorimetry : 4:2:0
Scan type : Progressive
Bits/(Pixel*Frame) : 0.204
Stream size : 1.03 GiB (75%)
Writing library : XviD 1.0.1 (UTC 2004-06-05)

Audio
Format : AC-3
Format/Info : Audio Coding 3
Codec ID : 2000
Duration : 2h 2mn
Bit rate mode : Constant
Bit rate : 384 Kbps
Channel(s) : 6 channels
Channel positions : Front: L C R, Surround: L R, LFE
Sampling rate : 48.0 KHz
Stream size : 336 MiB (24%)
Alignment : Split accross interleaves
Interleave, duration : 40 ms (1.01 video frame)
Interleave, preload duration : 500 ms
Language : Turkish / Turkish

related torrents

Torrent name

health leech seeds Size

Arog Cem Yilmaz

4 4 699.84 MB 0

Cem Yilmaz Show 08

0 0 3.00 MB 0
 


comments (0)

Main Menu