Comedy

Cem Yilmaz in A R O G Filmi

  • Download 5x Faster
  • Download torrent
  • Direct Download
  • Rate this torrent +  |  -
Cem Yilmaz in A R O G Filmi

Free and Direct Download with Usenet.nl 300GB+ free


Torrent info

Name:Cem Yilmaz in A R O G Filmi

Total Size: 699.84 MB

Magnet: Magnet Link

Seeds: 0

Leechers: 0

Stream: Watch Online @ Movie4u

Last Updated: 2015-09-23 07:15:33 (Update Now)

Torrent added: 2009-08-31 01:55:26





Torrent Files List


A.R.O.G.avi (Size: 699.84 MB) (Files: 1)

 A.R.O.G.avi

699.84 MB
 

tracker

leech seeds
 

Torrent description

Format : AVI
Format/Info : Audio Video Interleave
File size : 700 MiB
Duration : 2h 2mn
Overall bit rate : 798 Kbps

Video
Format : MPEG-4 Visual
Format profile : Streaming [email protected]
Format settings, BVOP : Yes
Format settings, QPel : No
Format settings, GMC : No warppoints
Format settings, Matrix : Custom
Codec ID : XVID
Codec ID/Hint : XviD
Duration : 2h 2mn
Bit rate : 668 Kbps
Width : 704 pixels
Height : 384 pixels
Display aspect ratio : 16/9
Frame rate : 25.000 fps
Resolution : 24 bits
Colorimetry : 4:2:0
Scan type : Progressive
Bits/(Pixel*Frame) : 0.099
Stream size : 586 MiB (84%)
Writing library : XviD 1.2.1 (UTC 2008-12-04)

Audio
Format : MPEG Audio
Format version : Version 1
Format profile : Layer 3
Codec ID : 55
Codec ID/Hint : MP3
Duration : 2h 2mn
Bit rate mode : Variable
Bit rate : 117 Kbps
Minimum bit rate : 128 Kbps
Channel(s) : 2 channels
Sampling rate : 48.0 KHz
Resolution : 16 bits
Stream size : 102 MiB (15%)
Alignment : Aligned on interleaves
Interleave, duration : 24 ms (0.60 video frame)
Interleave, preload duration : 158 ms
Writing library : LAME3.98r
Encoding settings : ABR

related torrents

Torrent name

health leech seeds Size

Arog Cem Yilmaz

4 4 699.84 MB 0

Cem Yilmaz Show 08

0 0 3.00 MB 0
 

comments (0)

Main Menu