Comedy

Casino Royale[1967]DVDrip[Eng]AC3[2 0] Atlas47

  • Download 5x Faster
  • Download torrent
  • Direct Download
  • Rate this torrent +  |  -
Casino Royale[1967]DVDrip[Eng]AC3[2 0] Atlas47

Free and Direct Download with Usenet 300GB+ free


Torrent info

Name:Casino Royale[1967]DVDrip[Eng]AC3[2 0] Atlas47

Total Size: 1.38 GB

Magnet: Magnet Link

Seeds: 2

Leechers: 2

Stream: Watch Online @ Movie4u

Last Updated: 2012-08-12 23:43:18 (Update Now)

Torrent added: 2009-08-31 01:51:33




Torrent Files List


Covers (Size: 1.38 GB) (Files: 6)

 Covers

  Casino Royale.jpg

1.47 MB

 Casino Royale.avi

1.37 GB

 Casino Royale.idx

60.20 KB

 Casino Royale.nfo

10.30 KB

 Casino Royale.sub

5.72 MB

 Torrent_downloaded_from_Demonoid.com.txt

0.05 KB
 

Announce URL: http://tracker.torrentbox.com:2710/announce

Torrent description


±±±±±±±±±±±±±±±±±±±±±±±±±±±±±±±±±±±±±±±±±±±±±±±±±±±±±±±±±±±±±±±±±±±±±±±±±±±±±±±±
± ±
± INFO: ±
± ±
± General ±
± Complete name : Casino Royale ±
± Genre : Comedy / Action / Adventure ±
± Format : AVI ±
± Format/Info : Audio Video Interleave ±
± File size : 1.37 GiB ±
± Duration : 2h 05mn ±
± Overall bit rate : 1 559 Kbps ±
± Writing application : VirtualDubMod 1.5.4.1 (build 2178/release)±
± Writing library : VirtualDubMod build 2178/release ±
± ±
± Video ±
± Format : MPEG-4 Visual ±
± Format settings, BVOP : Yes ±
± Format settings, QPel : No ±
± Format settings, GMC : No warppoints ±
± Format settings, Matrix : Default ±
± Codec ID : DX50 ±
± Codec ID/Hint : DivX 5 ±
± Duration : 2h 05mn ±
± Bit rate : 1 327 Kbps ±
± Width : 672 pixels ±
± Height : 288 pixels ±
± Display aspect ratio : 2.35 ±
± Frame rate : 25.000 fps ±
± Resolution : 24 bits ±
± Colorimetry : 4:2:0 ±
± Scan type : Progressive ±
± Bits/(Pixel*Frame) : 0.274 ±
± Stream size : 1.17 GiB (85%) ±
± Writing library : DivX 2816 ±
± ±
± Audio ±
± Format : AC-3 ±
± Format/Info : Audio Coding 3 ±
± Codec ID : 2000 ±
± Duration : 2h 05mn ±
± Bit rate mode : Constant ±
± Bit rate : 224 Kbps ±
± Channel(s) : 2 channels ±
± Channel positions : L R ±
± Sampling rate : 48.0 KHz ±
± Stream size : 201 MiB (14%) ±
± Alignment : Split accross interleaves ±
± Interleave, duration : 80 ms (2.00 video frames) ±
± Interleave, preload duration : 500 ms ±
± Language : English ±
± Subtitles : English ±
± ±
± IMDb Rating : 5.1/10 ±
± IMDb URL : http://www.imdb.com/title/tt0061452/ ±
± ±
±°°°°°°°°°°°°°°°°°°°°°°°°°°°°°°°°°°°°°°°°°°°°°°°°°°°°°°°°°°°°°°°°°°°°°°°°°°°°°°±
± ±
± Things are looking decidedly bleak for British Intelligence, in both senses ±
± of the term. SMERSH has begun to sabotage global stability; no less than 11 ±
± agents have been lost; and to make matters worse, our greatest secret agent, ±
± 007 is languishing in stately retirement. ±
± M - together with the heads of the CIA and the KGB - have only one hope: to ±
± bring Sir James Bond out of retirement and into the field. Finding himself ±
± pitched against an opposition of fiendish intensity - an army of female ±
± agents armed with explosive grouse; a Baccarat-playing illusionist; and a ±
± neurotic megalomaniac - Bond launches his brilliant plan..."from now on, all ±
± agents will be known as James Bond, including the girls". ±
± ±
±°°°°°°°°°°°°°°°°°°°°°°°°°°°°°°°°°°°°°°°°°°°°°°°°°°°°°°°°°°°°°°°°°°°°°°°°°°°°°°±
± ±
± CAST: ±
± ±
± Peter Sellers..............Evelyn Tremble, James Bond-007 ±
± Ursula Andress.............Vesper Lynd - 007 ±
± David Niven................Sir James Bond ±
± Orson Welles...............Le Chiffre ±
± Joanna Pettet..............Mata Bond ±
± Woody Allen................Jimmy Bond - Dr. Noah ±
± Deborah Kerr...............Agent Mimi aka Lady Fiona ±
± ±
±°°°°°°°°°°°°°°°°°°°°°°°°°°°°°°°°°°°°°°°°°°°°°°°°°°°°°°°°°°°°°°°°°°°°°°°°°°°°°°±
± ±
± Please remember to seed ±
± ±
± Seeding is good for the soul ±
± ±
± www.tornster.com ±
± ±
±±±±±±±±±±±±±±±±±±±±±±±±±±±±±±±±±±±±±±±±±±±±±±±±±±±±±±±±±±±±±±±±±±±±±±±±±±±±±±±±

related torrents

Torrent name

health leech seeds Size

Casino Royale (1967)

0 4 2.00 GB 0

Casino Royale (1967)

0 0 1.00 GB 0
 

comments (0)

Main Menu