Comedy

Buffalo '66 1998 DVDRip XviD [

  • Download 5x Faster
  • Download torrent
  • Direct Download
  • Rate this torrent +  |  -
Buffalo '66 1998 DVDRip XviD [

Anonymous and free Direct Download 300GB+


Torrent info

Name:Buffalo '66 1998 DVDRip XviD [

Total Size: 697.32 MB

Magnet: Magnet Link

Seeds: 0

Leechers: 0

Stream: Watch Online @ Movie4u

Last Updated: 2010-09-22 15:49:16 (Update Now)

Torrent added: 2009-08-31 01:27:18



VPN For Torrents

Torrent Files List


Buffalo '66.nfo (Size: 697.32 MB) (Files: 51)

 Buffalo '66.nfo

1.57 KB

 Buffalo '66.sfv

4.55 KB

 Buffalo 66.part01.rar

14.31 MB

 Buffalo 66.part02.rar

14.31 MB

 Buffalo 66.part03.rar

14.31 MB

 Buffalo 66.part04.rar

14.31 MB

 Buffalo 66.part05.rar

14.31 MB

 Buffalo 66.part06.rar

14.31 MB

 Buffalo 66.part07.rar

14.31 MB

 Buffalo 66.part08.rar

14.31 MB

 Buffalo 66.part09.rar

14.31 MB

 Buffalo 66.part10.rar

14.31 MB

 Buffalo 66.part11.rar

14.31 MB

 Buffalo 66.part12.rar

14.31 MB

 Buffalo 66.part13.rar

14.31 MB

 Buffalo 66.part14.rar

14.31 MB

 Buffalo 66.part15.rar

14.31 MB

 Buffalo 66.part16.rar

14.31 MB

 Buffalo 66.part17.rar

14.31 MB

 Buffalo 66.part18.rar

14.31 MB

 Buffalo 66.part19.rar

14.31 MB

 Buffalo 66.part20.rar

14.31 MB

 Buffalo 66.part21.rar

14.31 MB

 Buffalo 66.part22.rar

14.31 MB

 Buffalo 66.part23.rar

14.31 MB

 Buffalo 66.part24.rar

14.31 MB

 Buffalo 66.part25.rar

14.31 MB

 Buffalo 66.part26.rar

14.31 MB

 Buffalo 66.part27.rar

14.31 MB

 Buffalo 66.part28.rar

14.31 MB

 Buffalo 66.part29.rar

14.31 MB

 Buffalo 66.part30.rar

14.31 MB

 Buffalo 66.part31.rar

14.31 MB

 Buffalo 66.part32.rar

14.31 MB

 Buffalo 66.part33.rar

14.31 MB

 Buffalo 66.part34.rar

14.31 MB

 Buffalo 66.part35.rar

14.31 MB

 Buffalo 66.part36.rar

14.31 MB

 Buffalo 66.part37.rar

14.31 MB

 Buffalo 66.part38.rar

14.31 MB

 Buffalo 66.part39.rar

14.31 MB

 Buffalo 66.part40.rar

14.31 MB

 Buffalo 66.part41.rar

14.31 MB

 Buffalo 66.part42.rar

14.31 MB

 Buffalo 66.part43.rar

14.31 MB

 Buffalo 66.part44.rar

14.31 MB

 Buffalo 66.part45.rar

14.31 MB

 Buffalo 66.part46.rar

14.31 MB

 Buffalo 66.part47.rar

14.31 MB

 Buffalo 66.part48.rar

14.31 MB

 Buffalo 66.part49.rar

10.67 MB
 

Announce URL: http://tracker.ilovetorrents.com/announce.php

Torrent description

Billy Brown has been in jail, but his parents think that he's married and successful. When he can't find anywhere in Buffalo where he can pee, he runs desperately into a dance studio to use the washroom. He winds up kidnapping a dance student, Layla to bring home and show off to his parents. The parents just barely remember their son or care about him, but Layla falls for him.



Format : AVI
Format/Info : Audio Video Interleave
File size : 697 MiB
Duration : 1h 49mn
Overall bit rate : 889 Kbps
Writing application : Nandub v1.0rc2
Writing library : Nandub build 1853/release

Video
Format : MPEG-4 Visual
Codec ID : DIV3
Codec ID/Hint : DivX 3 Low
Duration : 1h 49mn
Bit rate : 739 Kbps
Width : 640 pixels
Height : 352 pixels
Display aspect ratio : 16/9
Frame rate : 23.976 fps
Resolution : 24 bits
Bits/(Pixel*Frame) : 0.137
Stream size : 580 MiB (83%)

Audio
Format : MPEG Audio
Format version : Version 1
Format profile : Layer 3
Codec ID : 55
Codec ID/Hint : MP3
Duration : 1h 49mn
Bit rate mode : Variable
Bit rate : 137 Kbps
Channel(s) : 2 channels
Sampling rate : 48.0 KHz
Resolution : 16 bits
Stream size : 108 MiB (15%)
Alignment : Aligned on interleaves
Interleave, duration : 24 ms (0.58 video frame)
Interleave, preload duration : 514 ms

Link: http://www.imdb.com/title/tt0118789/

related torrents

Torrent name

health leech seeds Size

Buffalo 66 (1998)

2 3 4.03 GB 0
 


comments (0)

Main Menu