Trance / House / Dance

DJ Gazsstar106 The Soulful House Sessions Vol 1

  • Download 5x Faster
  • Download torrent
  • Direct Download
  • Rate this torrent +  |  -
DJ Gazsstar106 The Soulful House Sessions Vol 1

Free and Direct Download with Usenet 300GB+ free


Torrent info

Name:DJ Gazsstar106 The Soulful House Sessions Vol 1

Total Size: 176.45 MB

Magnet: Magnet Link

Seeds: 4

Leechers: 2

Stream: Watch Online @ Movie4u

Last Updated: 0000-00-00 00:00:00 (Update Now)

Torrent added: 2009-08-31 01:05:29




Torrent Files List


DJ Gazsstar106 - The Soulful House Sessions Vol. 1.cue (Size: 176.45 MB) (Files: 5)

 DJ Gazsstar106 - The Soulful House Sessions Vol. 1.cue

1.97 KB

 DJ Gazsstar106 - The Soulful House Sessions Vol. 1.mp3

175.48 MB

 DJ Gazsstar106 - The Soulful House Sessions Vol. 1.nfo

2.00 KB

 The Soulful House Sessions Vol. 1.jpg

986.40 KB

 Torrent downloaded from Demonoid.com.txt

0.05 KB
 

Announce URL: http://inferno.demonoid.com:3416/announce

Torrent description

DJ Gazsstar106 - The Soulful House Sessions Vol.1

Encoded at 320kbps

This is A selection of the finest Soulful House music around in 2009 mixed by DJ Gazsstar106

Ideal for chillin late nights or Sunday afternoons

I Hope you enjoy it as much as I did mixing it.

always remember to leave a comment and seed if you enjoy.
Give back to the community that has been made freely availible to you.

To use the cue file use nero express or something simular this will burn the mix onto a cd with track splits and no pauses


Thanks

G


Track List

1 "Dancin' Remixes (Incl. Conan Laquid Main Max)"
Artist "Blacksoul Feat. Marcya"
INDEX 01 00:00:00
2 "Mercyless Feat. Wayne Tennant (Original Mix)"
Artist "Fred Everything"
INDEX 01 06:42:00
3 "Spirits (original Mix)"
Artist "Cookie Monsterz & DJ Roland C"
INDEX 01 09:53:00
4 "Mind Reflections"
Artist "Franck Roger Productions"
INDEX 01 15:15:00
5 "Retro Visions Vol.1 (Think About It)"
Artist "Fred Everything & Oliver Desmet"
INDEX 01 19:41:61
6 "Give Me Your Trust (Layabout Main Mix)"
Artist "Layabouts Feat. Yvonne"
INDEX 01 23:47:45
7 "Streets Of The Sun (Heavyweight Mix)"
Artist "Andy Ward Feat Sofia Rubina"
INDEX 01 29:40:63
8 "The Forbidden"
Artist "Soul Purpose"
INDEX 01 35:11:12
9 "Down For It (Fred Everything & Oliver Desmet Remix)"
Artist "Latenight Society Feat. Diz"
INDEX 01 41:44:49
10 "London Roots (Soul Heaven Mix)"
Artist "Vega Feat. Johnnydangerous"
INDEX 01 44:45:19
11 "Let It Fall (Harlum Mix)"
Artist "Lady Alma And The Rainmakers"
INDEX 01 49:42:55
12 "Son Of A Gun (Original Mix)"
Artist "Joshua Heath"
INDEX 01 56:14:39
13 "Summer Nights (Jovonn Summer Mix)"
Artist "dunnEASY Feat. Kenny Bobien"
INDEX 01 61:29:24
14 "Feel It (Main Mix)"
Artist "Sebastian Gamboa"
INDEX 01 65:35:05
15 "Soul Good (Original Mix)"
Artist "DJ Roland Clark
INDEX 01 71:12:63

related torrents

Torrent name

health leech seeds Size
 

comments (0)

Main Menu