TV - Other

Emmerdale (1st July 2008) PDTV (Xvid) supreme speeds com

  • Download 5x Faster
  • Download torrent
  • Direct Download
  • Rate this torrent +  |  -
Emmerdale (1st July 2008) PDTV (Xvid) supreme speeds com

Free and Direct Download with Usenet 300GB+ free


Torrent info

Name:Emmerdale (1st July 2008) PDTV (Xvid) supreme speeds com

Total Size: 349.87 MB

Magnet: Magnet Link

Seeds: 1

Leechers: 0

Stream: Watch Online @ Movie4u

Last Updated: 2010-08-03 11:44:58 (Update Now)

Torrent added: 2008-07-02 03:38:22




Torrent Files List


Emmerdale (1st July 2008) [PDTV (Xvid)].avi (Size: 349.87 MB) (Files: 2)

 Emmerdale (1st July 2008) [PDTV (Xvid)].avi

349.87 MB

 Emmerdale (1st July 2008) [PDTV (Xvid)].nfo

2.45 KB
 

Announce URL: http://supreme-speeds.com/announce.php?passkey=tssespecialtorrentv1byxamsep2007

Torrent description

Emmerdale (1st July 2008) [PDTV (Xvid)].avi

website:-
http://www.itv.com/Soaps/emmerdale/default.html

Emmerdale (Soap)
Time - 19:00 - 20:00 (1 hour long)
When - Tuesday 1st July on ITV1 London
Blood Ties.
Laurel finally accepts Arthur. Mel and Greg leave the village. Louise suggests a plan to Jamie.
Director: Sarah Punshon
Starring: Georgia Slowe, Sammy Winward, Lucy Pargeter, Sally Oliver, Tom Lister, Michael Jayston
(Stereo, Widescreen, Subtitles, Audio Described)

Video info:-

Complete name: Emmerdale (1st July 2008) [PDTV (Xvid)].avi
Format: AVI
Format/Info: Audio Video Interleave
File size: 350 MiB
Duration: 46mn 23s
Overal bit rate: 1055 Kbps
Writing application: VirtualDubMod 1.5.4.1 (build 2178/release)
Writing library: VirtualDubMod build 2178/release

Video
Format: MPEG-4 Visual
Format settings, BVOP: No
Format settings, QPel: No
Format settings, GMC: 0 warppoint
Format settings, Matrix: Default
Codec ID: XVID
Codec ID/Hint: XviD
Duration: 46mn 23s
Bit rate: 919 Kbps
Width: 640 pixels
Height: 368 pixels
Display aspect ratio: 16/9
frame rate: 25.000 fps
Resolution: 8 bits
Colorimetry: 4:2:0
Scan type: Progressive
Bits/(Pixel*frame): 0.156
Stream size: 305 MiB
Writing library: XviD 1.0.1
Writing library/Date: UTC 2004-06-05

Audio
Format: MPEG Audio
Format version: Version 1 / Layer 3
Codec ID: 55
Codec ID/Hint: MP3
Duration: 46mn 23s
Bit rate mode: CBR
Bit rate: 128 Kbps
Minimum bit rate: 128 Kbps
Channel(s): 2 channels
Sampling rate: 48.0 KHz
Resolution: 16 bits
Stream size: 42.5 MiB
Writing library: LAME3.97
Encoding settings: CBR

related torrents

Torrent name

health leech seeds Size
 

comments (0)

Main Menu