Comedy

Blazing Saddles (1974) Dvdrip

  • Download 5x Faster
  • Download torrent
  • Direct Download
  • Rate this torrent +  |  -
Blazing Saddles (1974) Dvdrip

Anonymous and Free Direct Download


Torrent info

Name:Blazing Saddles (1974) Dvdrip

Total Size: 699.88 MB

Magnet: Magnet Link

Seeds: 0

Leechers: 0

Stream: Watch Online @ Movie4u

Last Updated: 2017-08-18 20:30:45 (Update Now)

Torrent added: 2009-08-31 00:49:15



VPN For Torrents

Torrent Files List


Blazing Saddles (1974) [HTR].avi (Size: 699.88 MB) (Files: 3)

 Blazing Saddles (1974) [HTR].avi

699.88 MB

 Blazing Saddles (1974).nfo

2.79 KB

 Torrent downloaded from Demonoid.com.txt

0.05 KB
 

Announce URL:

Torrent description

Title................................: Blazing Saddles
International title(s)...............: Black Bart (USA) (working title) Mel Brooks' Blazing Saddles or Never Give a Saga an Even Break (USA) (poster title) Tex X (USA) (original script title) The Purple Sage (USA) (working title)
Director.............................: N/A
Release year.........................: 1974
Language.............................: English
Runtime..............................: 93 min
Genre................................: Comedy | Western more
Color................................: Color (Technicolor)
IMDb rating..........................: 7.8/10
Link 1...............................: http://www.imdb.com/title/tt0071230/



General
Complete name : G:\DVD Temp\Blazing Saddles (1974)\Blazing Saddles (1974) [HTR].avi
Format : AVI
Format/Info : Audio Video Interleave
File size : 700 MiB
Duration : 1h 33mn
Overal bit rate : 1052 Kbps
Writing application : VirtualDubMod 1.5.4.1 (build 2178/release)
Writing library : VirtualDubMod build 2178/release
IAS1 : English

Video
Format : MPEG-4 Visual
Format profile : Streaming [email protected]
Format settings, BVOP : Yes
Format settings, QPel : No
Format settings, GMC : No warppoints
Format settings, Matrix : Custom
Codec ID : XVID
Codec ID/Hint : XviD
Duration : 1h 33mn
Bit rate : 954 Kbps
Width : 608 pixels
Height : 272 pixels
Display aspect ratio : 2.25
Frame rate : 23.976 fps
Resolution : 8 bits
Colorimetry : 4:2:0
Scan type : Progressive
Bits/(Pixel*Frame) : 0.241
Stream size : 635 MiB
Writing library : XviD 1.2.0.dev47 (UTC 2006-11-01)

Audio
Format : MPEG Audio
Format version : Version 1
Format profile : Layer 3
Codec ID : 55
Codec ID/Hint : MP3
Duration : 1h 32mn
Bit rate mode : Variable
Bit rate : 85.1 Kbps
Channel(s) : 2 channels
Sampling rate : 48.0 KHz
Resolution : 16 bits
Stream size : 56.6 MiB

related torrents

Torrent name

health leech seeds Size
 


comments (0)

Main Menu