Comedy

BEING THERE [G S] DVDRIP XVID [ROHO]

  • Download 5x Faster
  • Download torrent
  • Direct Download
  • Rate this torrent +  |  -
BEING THERE [G S] DVDRIP XVID [ROHO]

Download FREE And Anonymously


Torrent info

Name:BEING THERE [G S] DVDRIP XVID [ROHO]

Total Size: 1.29 GB

Magnet: Magnet Link

Seeds: 0

Leechers: 0

Stream: Watch Full Movie @ Movie4u

Last Updated: 2009-12-03 21:14:53 (Update Now)

Torrent added: 2009-08-31 00:17:18



VPN For Torrents

Torrent Files List


BEING THERE.DVDRip.avi (Size: 1.29 GB) (Files: 1)

 BEING THERE.DVDRip.avi

1.29 GB
 

Announce URL: http://open.tracker.thepiratebay.org/announce

Torrent description

Γενικ?
Πλ?ρες ?νομα : BEING THERE.DVDRipXVID [ROHO]
Μορφοπο?ηση : AVI
Μορφοπο?ηση/Info : Audio Video Interleave
Μ?γεθος αρχε?ου : 1.29 GiB
Duration : 2h 4mn
Συνολικ? BitRate : 1489 Kbps
?νομα ταιν?ας : NEW.Title1.DVDRip
Εφαρμογ? εγγραφ?ς : Lavf51.10.0
Product : NEW

Video
Μορφοπο?ηση : MPEG-4 Visual
Format profile : [email protected]
Format settings, BVOP : ?χι
Format settings, QPel : ?χι
Format settings, GMC : No warpoints
Format settings, Matrix : Default
Codec ID : XVID
Codec ID/Hint : XviD
Duration : 2h 4mn
Ρυθμ?ς μετ?δοσης δεδομ?νων : 1284 Kbps
Πλ?τος : 688 εικονοστοιχε?α
?ψος : 384 εικονοστοιχε?α
Λ?γος εικ?νας : 16/9
Ρυθμ?ς αναν?ωσης πλαισ?ου : 25.000 fps
Αν?λυση : 8 bits
Colorimetry : 4:2:0
Scan type : Συνεχ?ς σ?ρωση
Bits/(Εικονοστοιχε?ο*Πλα?σιο) : 0.194
Stream size : 1.12 GiB
Βιβλιοθ?κη κωδικοποιητ? : XviD 1.1.2 (UTC 2006-11-01)

?χος
Μορφοπο?ηση : MPEG Audio
Format version : Version 1
Format profile : Layer 3
Codec ID : 55
Codec ID/Hint : MP3
Duration : 2h 4mn
Bit rate mode : Constant
Ρυθμ?ς μετ?δοσης δεδομ?νων : 192 Kbps
Καν?λι(α) : 2 καν?λια
Συχν?τητα δειγματοληψ?ας : 48.0 KHz
Αν?λυση : 16 bits
Καθηστ?ριση video : 24ms
Stream size : 171 MiB

related torrents

Torrent name

health leech seeds Size

Being there

0 1 2.00 GB 0

Being There

0 4 684.00 MB 0

Being There (1979) Dvd

0 1 2.00 GB 0
 


comments (0)

Main Menu

 

script data-cfasync="false" src="//d2ghscazvn398x.cloudfront.net/?cshgd=690275">