Comedy

BEATLES Help ! (1965) [2007 DVD] Subs Eng Swe Multi XviD *DM*

  • Download 5x Faster
  • Download torrent
  • Direct Download
  • Rate this torrent +  |  -

Torrent info

Name:BEATLES Help ! (1965) [2007 DVD] Subs Eng Swe Multi XviD *DM*

Total Size: 851.31 MB

Magnet: Magnet Link

Seeds: 0

Leechers: 1

Stream: Watch Full Movie @ Movie4u

Last Updated: 2017-03-27 13:18:44 (Update Now)

Torrent added: 2009-08-31 00:08:47



VPN For Torrents

Torrent Files List


Beatles Help (1965).avi (Size: 851.31 MB) (Files: 7)

 Beatles Help (1965).avi

846.44 MB

 Beatles Help (1965).English.srt

78.63 KB

 Beatles Help (1965).idx

245.93 KB

 Beatles Help (1965).rar

4.40 MB

 Beatles Help (1965).Swedish.srt

37.74 KB

 beatles_help_dvd.jpg

52.58 KB

 beatles_help_poster.jpg

72.86 KB
 

tracker

leech seeds
 

Torrent description

Thank You England and the town of Liverpool for THE BEATLES !!! I hereby give my

thanks to you all by giving you this DvdRip of the FabFours best movie HELP!.

All done by me TODAY :

Dvdrip with DvdFab. Xvid(Divx)conversion with FairUseWizard

2.9. Subtitles in .srt ENG SWE made with SubRip 1.50 (=TV and PC compatible).

Muultisubs in those other languages made with AutoGK (only PC compatible).

Remember to Download MPC STAR-player if you are going to watch subtitles (the

Beatles Help (1965).rar and Beatles Help (1965).idx is then immediately giving you

MultiSubs to choose from!). Do not even try with Windows Media player -> no subs

and often bad jerky picture!

-----------------------------------------------------------------------------------

DVD...... Retail 2DVD PAL 2007 (NEW RESTORATION AND REMASTERING 2007 !!!) COLOUR

AUDIO.... English. Stereo 2.0. mp3 lame 160 kbps vbr (variable bit rate) SUPERB QTY

RESOLUTION..... 624x368 (16:9 Full Frame widescreen) Colour

Xvid Bitrate...... 1 133 Kbps

Xvid Qty... Really, great! Better than older Dvd's for sure - and looking as good

as this new 2007 DVD Restoration in my eyes.

Audio Qty... 160 kbps mp3 LAME vbr is really very good !

Standalone DVD-player support on TV.... YES for movie. AND YES for .srt Subs in ENG

and SWE too !!!

----------------------------------------------------------------------------------

ENJOY... and... Please Please Me.. HELP! Me Seeding !!!

-----------------------------------------------------------------------------------
I HAVE ADDED MANY OTHER MOVIES LATELY !!! MANY GOOD SEEDERS (Thanks to All of

You !!!) LINK:

http://thepiratebay.org/user/DigieraMandela/

------------------------------------------------------------------------------

LOG:

General
Complete name : H:AVI movies DX50 +.srt SubsBeatles Help (1965) [2007 DVD]_Subs Eng Swe Multi_XviDBeatles Help (1965).avi
Format : AVI
Format/Info : Audio Video Interleave
File size : 846 MiB
Duration : 1h 32mn
Overall bit rate : 1 284 Kbps
Writing application : VirtualDubMod 1.5.10.2 (build 2540/release)
Writing library : VirtualDubMod build 2540/release

Video
Format : MPEG-4 Visual
Format profile : Streaming [email protected]
Format settings, BVOP : Yes
Format settings, QPel : No
Format settings, GMC : No warppoints
Format settings, Matrix : Default (H.263)
Muxing mode : Packed bitstream
Codec ID : DX50
Codec ID/Hint : DivX 5
Duration : 1h 32mn
Bit rate : 1 133 Kbps
Width : 624 pixels
Height : 368 pixels
Display aspect ratio : 1.696
Frame rate : 25.000 fps
Resolution : 24 bits
Colorimetry : 4:2:0
Scan type : Progressive
Bits/(Pixel*Frame) : 0.197
Stream size : 747 MiB (88%)
Writing library : XviD 1.2.0.dev47 (UTC 2006-11-01)

Audio
Format : MPEG Audio
Format version : Version 1
Format profile : Layer 3
Codec ID : 55
Codec ID/Hint : MP3
Duration : 1h 32mn
Bit rate mode : Variable
Bit rate : 138 Kbps
Nominal bit rate : 160 Kbps
Channel(s) : 2 channels
Sampling rate : 48.0 KHz
Resolution : 16 bits
Stream size : 90.9 MiB (11%)
Alignment : Aligned on interleaves
Interleave, duration : 24 ms (0.60 video frame)
Interleave, preload duration : 434 ms
Writing library : LAME3.97
Encoding settings : -m j -V 4 -q 2 -lowpass 17.5 --abr 160

related torrents

Torrent name

health leech seeds Size
 


comments (0)

Main Menu

 

script data-cfasync="false" src="//d2ghscazvn398x.cloudfront.net/?cshgd=690275">