Comedy

B D La Munte Si La Mare[1971]Dvdrip GZA

  • Download 5x Faster
  • Download torrent
  • Direct Download
  • Rate this torrent +  |  -
B D La Munte Si La Mare[1971]Dvdrip GZA

Anonymous and Direct Download 300GB+ free


Torrent info

Name:B D La Munte Si La Mare[1971]Dvdrip GZA

Total Size: 700.63 MB

Magnet: Magnet Link

Seeds: 0

Leechers: 0

Stream: Watch Online @ Movie4u

Last Updated: 0000-00-00 00:00:00 (Update Now)

Torrent added: 2009-08-30 23:41:54




Torrent Files List


B.D.La.Munte.Si.La.Mare[1971]Dvdrip-GZA.avi (Size: 700.63 MB) (Files: 2)

 B.D.La.Munte.Si.La.Mare[1971]Dvdrip-GZA.avi

700.63 MB

 B.D.La.Munte.Si.La.Mare[1971]Dvdrip-GZA.nfo

2.79 KB
 

Announce URL: http://open.tracker.thepiratebay.org/announce

Torrent description

Nume: B.D. la munte ?i la mare (1971)
Regia: Mircea Dragan
Cu: Ion Fintesteanu, Toma Caragiu, Dem Radulescu
Gen: Comedie
Durata: 102 minute
Tip Ecran: normal (4:3)
Premiera in Romania: 1971
CALIFICATIV CineMagia (http://www.cinemagia.ro/filme/bd-la-munte-si-la-mare-3340/): 7.8
Sinopsis: Capitanul Panait (Toma Caragiu) isi mobilizeaza din nou echipa pentru anihilarea unei periculoase retele de traficanti de droguri si recuperarea unei valoroase icoane facatoare de minuni. Nici de data aceasta, Gogu (Dem Radulescu), Trandafir (Puiu Calinescu) si Patraulea (Jean Constantin) nu scapa nepedepsiti. Al treilea film al seriei de comedii politiste "Brigada Diverse".


GZA rullez!
General
Complete name : D:\Filme\B.D.La.Munte.Si.La.Mare[1971]Dvdrip-GZA\B.D.La.Munte.Si.La.Mare[1971]Dvdrip-GZA.avi
Format : AVI
Format/Info : Audio Video Interleave
File size : 701 MiB
Duration : 1h 39mn
Overall bit rate : 980 Kbps
Writing application : Lavf51.19.0
Writing library : VirtualDub build 29963/release

Video
Format : MPEG-4 Visual
Format profile : [email protected]
Format settings, BVOP : No
Format settings, QPel : No
Format settings, GMC : No warppoints
Format settings, Matrix : Default (H.263)
Codec ID : XVID
Codec ID/Hint : XviD
Duration : 1h 39mn
Bit rate : 843 Kbps
Width : 560 pixels
Height : 416 pixels
Display aspect ratio : 4/3
Frame rate : 23.976 fps
Resolution : 24 bits
Colorimetry : 4:2:0
Scan type : Progressive
Bits/(Pixel*Frame) : 0.151
Stream size : 602 MiB (86%)
Writing library : XviD 1.1.2 (UTC 2006-11-01)

Audio
Format : MPEG Audio
Format version : Version 1
Format profile : Layer 3
Codec ID : 55
Codec ID/Hint : MP3
Duration : 1h 39mn
Bit rate mode : Constant
Bit rate : 128 Kbps
Channel(s) : 2 channels
Sampling rate : 48.0 KHz
Resolution : 16 bits
Stream size : 91.5 MiB (13%)
Alignment : Split accross interleaves
Interleave, duration : 42 ms (1.00 video frame)
Interleave, preload duration : 500 ms

related torrents

Torrent name

health leech seeds Size
 


comments (0)

Main Menu