Comedy

B D Intra In Actiune[1970]DvDrip GZA

  • Download 5x Faster
  • Download torrent
  • Direct Download
  • Rate this torrent +  |  -
B D Intra In Actiune[1970]DvDrip GZA

Free and Direct Download with Usenet.nl 300GB+ free


Torrent info

Name:B D Intra In Actiune[1970]DvDrip GZA

Total Size: 699.09 MB

Magnet: Magnet Link

Seeds: 0

Leechers: 0

Stream: Watch Online @ Movie4u

Last Updated: 0000-00-00 00:00:00 (Update Now)

Torrent added: 2009-08-30 23:41:48





Torrent Files List


B.D.Intra.In.Actiune[1970]DvDrip-GZA.avi (Size: 699.09 MB) (Files: 2)

 B.D.Intra.In.Actiune[1970]DvDrip-GZA.avi

699.08 MB

 B.D.Intra.In.Actiune[1970]DvDrip-GZA.nfo

3.07 KB
 

Announce URL: http://open.tracker.thepiratebay.org/announce

Torrent description

Nume: Brigada Diverse intra in actiune (1970)
Regia: Mircea Dragan
Cu: Puiu Calinescu, Sebastian Papaiani, Toma Caragiu
Gen: Comedie
Durata: 100 minute
Tip ecran: normal (4:3)
Premiera in Romania: 1970
CALIFICATIV CineMagia (http://www.cinemagia.ro/filme/brigada-diverse-intra-in-actiune-2259/): 7.7
Sinopsis: Doua cazuri de furt, aparent banale, ii conduc pe Capitanul Panait (Toma Caragiu), Plutonierul Capsuna (Sebastian Papaiani), Sergentul Cristoloveanu (Dumitru Furdui) si cainele Costel pe urmele unei adevarate retete de borfasi. Confruntarea cu vestitul "trio" Gogu (Dem Radulescu) - Trandafir (Puiu Calinescu) - Patraulea (Jean Constantin) naste situatii comice irezistibile. Film pilot din seria "Brigada Diverse" (B.D.). "Reteta acestui serial de comedie caruia ii sporeste succesul in timp este -cu siguranta- distributia de aur, marilor comici oferindu-li-se partituri pe masura- pline de seva , dar si conditii pentru a le spori hazul, prin amendarea cu o ironie truculenta." -Irina Coroiu.



GZA rullez!
General
Complete name : B.D.Intra.In.Actiune[1970]DvDrip-GZA.avi
Format : AVI
Format/Info : Audio Video Interleave
File size : 699 MiB
Duration : 1h 40mn
Overall bit rate : 975 Kbps
Writing application : VirtualDubMod 1.5.4.1 (build 2178/release)
Writing library : VirtualDubMod build 2178/release

Video
Format : MPEG-4 Visual
Format profile : Streaming [email protected]
Format settings, BVOP : Yes
Format settings, QPel : No
Format settings, GMC : No warppoints
Format settings, Matrix : Custom
Codec ID : XVID
Codec ID/Hint : XviD
Duration : 1h 40mn
Bit rate : 776 Kbps
Width : 640 pixels
Height : 480 pixels
Display aspect ratio : 4/3
Frame rate : 25.000 fps
Resolution : 24 bits
Colorimetry : 4:2:0
Scan type : Progressive
Bits/(Pixel*Frame) : 0.101
Stream size : 556 MiB (80%)
Writing library : XviD 1.2.0.dev47 (UTC 2006-11-01)

Audio
Format : AC-3
Format/Info : Audio Coding 3
Codec ID : 2000
Duration : 1h 40mn
Bit rate mode : Constant
Bit rate : 192 Kbps
Channel(s) : 2 channels
Channel positions : L R
Sampling rate : 48.0 KHz
Stream size : 138 MiB (20%)
Alignment : Split accross interleaves
Interleave, duration : 96 ms (2.40 video frames)
Interleave, preload duration : 96 ms
Language : Romanian

related torrents

Torrent name

health leech seeds Size

B D Intra In Actiune

0 0 1.02 GB 0
 

comments (0)

Main Menu