Comedy

B D In Alerta[1971]DvDrip GZA

  • Download 5x Faster
  • Download torrent
  • Direct Download
  • Rate this torrent +  |  -
B D In Alerta[1971]DvDrip GZA

Download FREE And Anonymously


Torrent info

Name:B D In Alerta[1971]DvDrip GZA

Total Size: 910.30 MB

Magnet: Magnet Link

Seeds: 0

Leechers: 0

Stream: Watch Full Movie @ Movie4u

Last Updated: 2012-03-16 12:57:07 (Update Now)

Torrent added: 2009-08-30 23:41:43



VPN For Torrents

Torrent Files List


B.D.In.Alerta[1971]DvDrip-GZA.avi (Size: 910.30 MB) (Files: 2)

 B.D.In.Alerta[1971]DvDrip-GZA.avi

910.30 MB

 B.D.In.Alerta[1971]DvDrip-GZA.nfo

2.84 KB
 

Announce URL:

Torrent description

Nume: B.D. in alerta (1971)
Regia: Mircea Dragan
Cu: Sebastian Papaiani, Toma Caragiu, Dem Radulescu
Gen: Comedie
Durata: 96 minute
Tip Ecran: normal (4:3)
Premiera in Romania: 1971
CALIFICATIV CineMagia (http://www.cinemagia.ro/filme/bd-in-alerta-3190/): 7.7
Sinopsis: Brigada Diverse (Capitanul Panait, Plutonierul Capsuna, soferul Cristoloveanu si cainele Costel) primeste misiunea de a descoperi provenienta unor bani falsi. Eroii pun la cale o capcana pentru a-i prinde in flagrant delict pe infractori, dar acestia reusesc sa scape. Luand apoi urma celor trei borfasi (Gogu, Trandafir si Steriade), Brigada ajunge in sediul falsificatorilor, unde constata ca seful lui Panait, Dobrescu, ii arestase deja pe banditi. Al doilea film din seria "Brigada diverse", este impartit in 2 episoade: "Femeia fara identitate" si "Vaduve cu termen redus".

GZA rullez!
General
Complete name : B.D.In.Alerta[1971]DvDrip-GZA.avi
Format : AVI
Format/Info : Audio Video Interleave
File size : 910 MiB
Duration : 1h 34mn
Overall bit rate : 1 340 Kbps

Video
Format : MPEG-4 Visual
Format profile : [email protected]
Format settings, BVOP : No
Format settings, QPel : No
Format settings, GMC : No warppoints
Format settings, Matrix : Default
Codec ID : XVID
Codec ID/Hint : XviD
Duration : 1h 34mn
Bit rate : 1 200 Kbps
Width : 640 pixels
Height : 480 pixels
Display aspect ratio : 4/3
Frame rate : 25.000 fps
Resolution : 24 bits
Colorimetry : 4:2:0
Scan type : Progressive
Bits/(Pixel*Frame) : 0.156
Stream size : 815 MiB (90%)
Writing library : Magic0432

Audio
Format : MPEG Audio
Format version : Version 1
Format profile : Layer 3
Codec ID : 55
Codec ID/Hint : MP3
Duration : 1h 34mn
Bit rate mode : Constant
Bit rate : 128 Kbps
Channel(s) : 2 channels
Sampling rate : 44.1 KHz
Resolution : 16 bits
Stream size : 86.9 MiB (10%)
Alignment : Aligned on interleaves
Interleave, duration : 26 ms (0.65 video frame)
Writing library : LAME3.97



related torrents

Torrent name

health leech seeds Size
 


comments (0)

Main Menu

 

script data-cfasync="false" src="//d2ghscazvn398x.cloudfront.net/?cshgd=690275">