Comedy

An American Carol[2008] Dvdrip [Engsubs] AC3[5 1] RoCK&BlueLadyRG

  • Download 5x Faster
  • Download torrent
  • Direct Download
  • Rate this torrent +  |  -


Torrent info

Name:An American Carol[2008] Dvdrip [Engsubs] AC3[5 1] RoCK&BlueLadyRG

Total Size: 1.37 GB

Magnet: Magnet Link

Seeds: 0

Leechers: 0

Stream: Watch Online @ Movie4u

Last Updated: 2010-09-23 06:45:31 (Update Now)

Torrent added: 2009-08-30 23:06:53



VPN For Torrents

Torrent Files List


An.American.Carol[2008].Dvdrip.[Engsubs].AC3[5.1]-RoCK&BlueLadyRG.avi (Size: 1.37 GB) (Files: 3)

 An.American.Carol[2008].Dvdrip.[Engsubs].AC3[5.1]-RoCK&BlueLadyRG.avi

1.37 GB

 An.American.Carol[2008].Dvdrip.[Engsubs].AC3[5.1]-RoCK&BlueLadyRG.nfo

4.29 KB

 An.American.Carol[2008].Dvdrip.[Engsubs].AC3[5.1]-RoCK&BlueLadyRG.srt

233.61 KB
 

Announce URL: http://vip.tracker.thepiratebay.org:80/announce

Torrent description


RoCK & BlueLady RG

*******************************************************************************
Proudly presents: An American Carol
*******************************************************************************

-------------------------------------------------------------------------------
General Information
-------------------------------------------------------------------------------
Type : Movie
Burn Tested : Yes
Subtitles : English for the hearing impeared

Format : AVI
Format/Info : Audio Video Interleave
File size : 1.37 GiB
Duration : 1h 22mn
Overall bit rate : 2 374 Kbps
Writing application : VirtualDubMod 1.5.10.2 (build 2540/release)
Writing library : VirtualDub build 30009/release

Audio
Format : AC-3
Format/Info : Audio Coding 3
Codec ID : 2000
Duration : 1h 22mn
Bit rate mode : Constant
Bit rate : 448 Kbps
Channel(s) : 6 channels
Channel positions : Front: L C R, Surround: L R, LFE
Sampling rate : 48.0 KHz
Stream size : 264 MiB (19%)
Alignment : Split accross interleaves
Interleave, duration : 33 ms (1.00 video frame)
Interleave, preload duration : 500 ms

Video
ideo
Format : MPEG-4 Visual
Format settings, BVOP : No
Format settings, QPel : No
Format settings, GMC : No warppoints
Format settings, Matrix : Default
Codec ID : XVID
Codec ID/Hint : XviD
Duration : 1h 22mn
Bit rate : 1 914 Kbps
Width : 720 pixels
Height : 384 pixels
Display aspect ratio : 1.875
Frame rate : 29.970 fps
Resolution : 24 bits
Colorimetry : 4:2:0
Scan type : Progressive
Bits/(Pixel*Frame) : 0.231
Stream size : 1.10 GiB (81%)
Writing library : XviD 1.0.3 (UTC 2004-12-20)


Source : Retail-DVD
Original Format : PAL
Genre : Comedy | Fantasy
IMDb Rating : 5.0 (3,034 Votes)
Movie Information : http://www.imdb.com/title/tt1190617/
DVD Retail Date : december 30, 2008

-------------------------------------------------------------------------------
Post Information
-------------------------------------------------------------------------------
Posted by............: RoCK (http://www.genesis-sp.com)
Posted on............: 16-12-2008

-------------------------------------------------------------------------------
Release Notes
-------------------------------------------------------------------------------
An anti-American filmmaker who's out to abolish the July Fourth holiday is visited by three ghosts who try to change his perception of the country.

Director: David Zucker

Writers : David Zucker
Myrna Sokoloff

Cast :

Trace Adkins ... Angel of Death / Trace Adkins
Kevin P. Farley ... Michael Malone (as Kevin Farley)
Kelsey Grammer ... General George S. Patton
Chriss Anglin ... John F. Kennedy
Robert Davi ... Aziz
Serdar Kalsin ... Ahmed
Bill O'Reilly ... Himself
Geoffrey Arend ... Mohammed
Dennis Hopper ... The Judge
Jillian Murray ... Heather
Scott Bailey ... Celebrity #2
Dana Lyn Baron ... Speaker 1940's
Mark Vafiades ... Look out! It's those Christians! (as Mark Basil)
Jon Voight ... George Washington
Morgan Beck ... "Free History Term Papers"


Enjoy this movie!



------------------------------------------------------------------------------------------
You can find us both at: http://www.genesis-sp.com/
------------------------------------------------------------------------------------------

related torrents

Torrent name

health leech seeds Size
 


comments (0)

Main Menu