Comedy

America's Sweethearts RICO

  • Download 5x Faster
  • Download torrent
  • Direct Download
  • Rate this torrent +  |  -
America's Sweethearts RICO

Anonymous and Free Direct Download 300GB+


Torrent info

Name:America's Sweethearts RICO

Total Size: 700.98 MB

Magnet: Magnet Link

Seeds: 0

Leechers: 0

Stream: Watch Online @ Movie4u

Last Updated: 2010-09-10 11:26:56 (Update Now)

Torrent added: 2009-08-30 22:54:28



VPN For Torrents

Torrent Files List


Americas Sweethearts - Julia Roberts-RICO.avi (Size: 700.98 MB) (Files: 3)

 Americas Sweethearts - Julia Roberts-RICO.avi

700.98 MB

 MEDIA INFO.DOC

2.66 KB

 tracked_by_h33t_com.txt

0.02 KB
 

Announce URL: http://www.h33t.com:3310/announce

Torrent description

General
Complete name : G:\Movies\America's Sweethearts_ -RICO\Americas Sweethearts - Julia Roberts-RICO.avi
Format : AVI
Format/Info : Audio Video Interleave
File size : 701 MiB
Duration : 1h 41mn
Overall bit rate : 969 Kbps
Writing application : Nandub v1.0rc2
Writing library : Nandub build 1853/release

Video
Format : MPEG-4 Visual
Codec ID : DIV3
Codec ID/Hint : DivX 3 Low
Duration : 1h 41mn
Bit rate : 831 Kbps
Width : 576 pixels
Height : 256 pixels
Display aspect ratio : 2.25
Frame rate : 23.976 fps
Resolution : 24 bits
Bits/(Pixel*Frame) : 0.235
Stream size : 601 MiB (86%)

Audio
Format : MPEG Audio
Format version : Version 1
Format profile : Layer 3
Codec ID : 55
Codec ID/Hint : MP3
Duration : 1h 41mn
Bit rate mode : Variable
Bit rate : 126 Kbps
Channel(s) : 2 channels
Sampling rate : 44.1 KHz
Resolution : 16 bits
Stream size : 90.8 MiB (13%)
Alignment : Aligned on interleaves
Interleave, duration : 26 ms (0.63 video frame)
Interleave, preload duration : 443 ms
Writing library : LAME3.88 (alpha)

related torrents

Torrent name

health leech seeds Size

America's Sweethearts

0 0 700.98 MB 0
 


comments (0)

Main Menu