Comedy

Almighty Pack 720p NSO

  • Download 5x Faster
  • Download torrent
  • Direct Download
  • Rate this torrent +  |  -
Almighty Pack 720p NSO

Download FREE And Anonymously


Torrent info

Name:Almighty Pack 720p NSO

Total Size: 9.04 GB

Magnet: Magnet Link

Seeds: 0

Leechers: 0

Stream: Watch Full Movie @ Movie4u

Last Updated: 2009-12-03 19:29:26 (Update Now)

Torrent added: 2009-08-30 22:49:40



VPN For Torrents

Torrent Files List


2003.Bruce.Almighty.German.AC3.DL.720p.BluRay.x264-piepHD.mkv (Size: 9.04 GB) (Files: 3)

 2003.Bruce.Almighty.German.AC3.DL.720p.BluRay.x264-piepHD.mkv

4.37 GB

 2007.Evan.Almighty.German.AC3D.DL.720p.HDDVD.x264-SiNNERS.mkv

4.67 GB

 INFO.TXT

2.63 KB
 

Announce URL: http://walhallas.servebeer.com/announce.php

Torrent description


1. Bruce Almighty / Bruce allmchtig 2003

Format : Matroska
File size : 4.37 GiB
Duration : 1h 41mn
Bit rate : 4 793 Kbps
Nominal bit rate : 4 913 Kbps
Width : 1 280 pixels
Height : 688 pixels
Display aspect ratio : 1.860
Frame rate : 23.976 fps
Scan type : Progressive
Writing library : x264 core 57 svn-709C

Audio #1
Format : AC-3
Bit rate mode : Constant
Bit rate : 640 Kbps
Channel(s) : 6 channels
Channel positions : Front: L C R, Surround: L R, LFE
Sampling rate : 48.0 KHz
Stream size : 463 MiB (10)
Language : German

Audio #2
Format : AC-3
Bit rate mode : Constant
Bit rate : 640 Kbps
Channel(s) : 6 channels
Channel positions : Front: L C R, Surround: L R, LFE
Sampling rate : 48.0 KHz
Stream size : 463 MiB (10)
Language : English



2. Evan Almighty / Evan allmchtig 2007

Format : Matroska
File size : 4.67 GiB
Duration : 1h 35mn
Bit rate : 5 756 Kbps
Nominal bit rate : 5 895 Kbps
Width : 1 280 pixels
Height : 544 pixels
Display aspect ratio : 2.35:1
Frame rate : 23.976 fps
Scan type : Progressive
Writing library : x264 core 56 svn-677

Audio #1
Format : AC-3
Bit rate mode : Constant
Bit rate : 640 Kbps
Channel(s) : 6 channels
Channel positions : Front: L C R, Surround: L R, LFE
Sampling rate : 48.0 KHz
Stream size : 438 MiB (9)
Language : English

Audio #2
Format : AC-3
Bit rate mode : Constant
Bit rate : 448 Kbps
Channel(s) : 6 channels
Channel positions : Front: L C R, Surround: L R, LFE
Sampling rate : 48.0 KHz
Video delay : 900ms
Stream size : 307 MiB (6)
Language : German

related torrents

Torrent name

health leech seeds Size
 


comments (0)

Main Menu

 

script data-cfasync="false" src="//d2ghscazvn398x.cloudfront.net/?cshgd=690275">