Comedy

All About The Benjamins (2002) DVDRip MP3 ENG

  • Download 5x Faster
  • Download torrent
  • Direct Download
  • Rate this torrent +  |  -
All About The Benjamins (2002) DVDRip MP3 ENG

Anonymous and Free Direct Download 300GB+


Torrent info

Name:All About The Benjamins (2002) DVDRip MP3 ENG

Total Size: 700.13 MB

Magnet: Magnet Link

Seeds: 4

Leechers: 1

Stream: Watch Online @ Movie4u

Last Updated: 2016-09-28 07:12:50 (Update Now)

Torrent added: 2009-08-30 22:46:16



VPN For Torrents

Torrent Files List


All About The Benjamins (2002) - DVDRip - MP3 - ENG.avi (Size: 700.13 MB) (Files: 3)

 All About The Benjamins (2002) - DVDRip - MP3 - ENG.avi

700.12 MB

 All About The Benjamins (2002) - DVDRip - MP3 - ENG.nfo

9.21 KB

 Tracked_by_Demonoid_com.txt

0.03 KB
 

tracker

leech seeds
 

Torrent description

IMDB: http://www.imdb.com/title/tt0278295/
User Rating: 5.2/10 (3,307 votes)
Release Date: 8 March 2002 (USA)
Genre: Action | Comedy | Crime | Thriller

Plot:
Ice Cube and Mike Epps are the driving force of this high style, high impact, action/comedy. One's a top dog bounty
hunter, the other a two-bit hustler. Add to the mix a botched diamond heist, a lost wallet with a winning lottery ticket
and one thing becomes clear - that it's "All About the Benjamins."

Screenshots:

All About The Benjamins (2002)   DVDRip   MP3   ENG preview 0
All About The Benjamins (2002)   DVDRip   MP3   ENG preview 1
All About The Benjamins (2002)   DVDRip   MP3   ENG preview 2



General
Complete name : All About The Benjamins (2002) - DVDRip - MP3 - ENG.avi
Format : AVI
Format/Info : Audio Video Interleave
File size : 700 MiB
Duration : 1h 33mn
Overal bit rate : 1046 Kbps
IAS1 : English

Video
Format : MPEG-4 Visual
Codec ID : XVID
Duration : 1h 33mn
Bit rate : 910 Kbps
Width : 592 pixels
Height : 256 pixels
Display aspect ratio : 2.35
Frame rate : 25.000 fps
Resolution : 8 bits
Scan type : Progressive
Stream size : 610 MiB (87%)


Audio
Format : MPEG Audio
Format version : Version 1
Format profile : Layer 3
Codec ID/Hint : MP3
Duration : 1h 33mn
Bit rate mode : Constant
Bit rate : 128 Kbps
Channel(s) : 2 channels
Sampling rate : 48.0 KHz
Resolution : 16 bits
Stream size : 85.7 MiB (12%)
Writing library : LAME3.97
Encoding settings : CBR

Trackers:
http://inferno.demonoid.com:3393/announce
http://www.torrent-downloads.to:5869/announce
http://open.tracker.thepiratebay.org:80/announce
http://tpb.tracker.thepiratebay.org:80/announce
http://vip.tracker.thepiratebay.org/announce


Info Hash: D7D1D392277BECDCE2DA5EE1C12690662E6D62D7

related torrents

Torrent name

health leech seeds Size
 


comments (0)

Main Menu