Other

Waqt(1965)Hindi MpegCon XviD ~ Smeet

  • Download 5x Faster
  • Download torrent
  • Direct Download
  • Rate this torrent +  |  -
Waqt(1965)Hindi MpegCon XviD ~ Smeet

Free and Direct Download with Usenet.nl 300GB+ free


Torrent info

Name:Waqt(1965)Hindi MpegCon XviD ~ Smeet

Total Size: 799.68 MB

Magnet: Magnet Link

Seeds: 0

Leechers: 0

Stream: Watch Online @ Movie4u

Last Updated: 0000-00-00 00:00:00 (Update Now)

Torrent added: 2009-08-30 22:30:48





Torrent Files List


smeet.nfo (Size: 799.68 MB) (Files: 2)

 smeet.nfo

6.94 KB

 Waqt(1965)Hindi-MpegCon-XviD ~ Smeet.avi

799.68 MB
 

Announce URL: http://tracker.torrentbox.com:2710/announce

Torrent description


################## TM
##^^^^^^^^^^^^^^^^####
############## #^^^^^^^^^^^^^^^^^^^##
###### #### #########^^^^^# #^^^^^#########^^^^^#
###### ####### ###########^^^# #^^^^^^^^^^^^^#^^^^^#
####### ####### ############^^## #^^^^^^^^^^^^^#^^^^^#
################################# ############^^^###^^^^^^^^^^^^^#^^^^^#
############################################^#^^#^^^^^^^^^^^^^^^^#^^^^^#
#####################################^^^^^^^^#^^#########^^^#######^^^^#####
####################################^^^^^^^^^##^^^^^^^^^##^^#^^^^^^^^^^^^^^##
####################################^^^^^^^^^^###^^^^^^^^#^^#^^^^^^^^^^^^^^^##
######################### ##########^^^^^####^^##^^^^^^^^#^^#^^^^^^^^^^^^^^^##
####################################^########^^#^#########^^######^^^^^######
#############################################^^#^#^^^^^^^^^^^^^^^#^^^^^#
##############################################^#^#^^^^^^^^^^^^^^^#^^^^^#
##############################################^#^#^^^^^^^^^^^^^^^#^^^^^#
##################################^^^^^^^^^^#^#^^^^^^^^^^^^^^^#^^^^^#
############################################^^^#^##^^^^^^^^^^^^^^#^^^^^#
##############################################^#^^^###^^^^^^^^^^^#^^^^^#
#################################################^^^^#^^^^^^^^^^^#^^^^^#
###############################################^######^^^^^^^^^^^#^^^^^#
###################### ###### ##############^^^^^^^^^^^########^^^^^#
###################### ###### ##############^^##^^^^^^^# #^^^^^^#
###################### ###### ##################^^^^^^^# #^^^^^^#
############## ############### ######^^# ########
############## ############### ###
#############
MEANS QUALITY

=======================================================
= Waqt (1965) =
=======================================================

|##############################################################################|
| |
|GENERAL INFORMATION |
|=================== |
|Format : DivX |
|Format/Info : Hack of AVI Interleave |
|File size : 800 MiB |
|Duration : 2h 58mn |
|Overall bit rate : 627 Kbps |
|Overall bit rate : 627 Kbps |
|Language : Hindi Source: VCD |
|SUBTITLE : No |
|GENRE : Drama | Mystery | Romance | Family |
|IMDB LINK : http://www.imdb.com/title/tt0059893/ |
|IMDB RATING : 8.1/10 |
|RIPPER : SMEET |
|##############################################################################|

|##############################################################################|
| |
|Video |
|Format : MPEG-4 Visual |
|Format settings, Matrix : Custom |
|Codec ID : DX50 |
|Codec ID/Hint : DivX 5 |
|Duration : 2h 58mn |
|Width : 560 pixels |
|Height : 416 pixels |
|Display aspect ratio : 4/3 |
|Frame rate : 25.000 fps |
|Resolution : 24 bits |
|Colorimetry : 4:2:0 |
|Scan type : Progressive |
|Bits/(Pixel*Frame) : 0.084 |
|Stream size : 624 MiB (78%) |
|Writing library : XviD 1.1.2 (UTC 2006-11-01) rter. |
|##############################################################################|
|Audio |
|Format : MPEG Audio |
|Format version : Version 1 |
|Format profile : Layer 3 |
|Codec ID : 55 |
|Codec ID/Hint : MP3 |
|Duration : 2h 58mn |
|Bit rate mode : Constant |
|Bit rate : 128 Kbps |
|Channel(s) : 2 channels |
|Sampling rate : 48.0 KHz |
|Resolution : 16 bits |
|Stream size : 163 MiB (20%) |
|Alignment : Split accross interleaves |
|Interleave, duration : 40 ms (1.00 video frame) |
|Interleave, preload duration : 500 ms |
|Title : Audio LAY 0ms |
|Writing library : LAME3.96r |
|Encoding settings : -m j -V 4 -q 7 -lowpass 17.5 -b 128 |
|##############################################################################|
www.AhaShare.Com

related torrents

Torrent name

health leech seeds Size
 

comments (0)

Main Menu