Other

Tya Ratri Paus Hota 1 CD DVDRip Subs MDG Release

  • Download 5x Faster
  • Download torrent
  • Direct Download
  • Rate this torrent +  |  -
Tya Ratri Paus Hota 1 CD DVDRip Subs MDG Release

Free and Direct Download with Usenet 300GB+ free


Torrent info

Name:Tya Ratri Paus Hota 1 CD DVDRip Subs MDG Release

Total Size: 692.95 MB

Magnet: Magnet Link

Seeds: 0

Leechers: 0

Stream: Watch Online @ Movie4u

Last Updated: 0000-00-00 00:00:00 (Update Now)

Torrent added: 2009-08-30 22:28:31




Torrent Files List


TRPH.srt (Size: 692.95 MB) (Files: 2)

 TRPH.srt

94.47 KB

 Tya Ratri Paus Hota - 1 CD DVDRip - Subs - MDG Release.avi

692.86 MB
 

Announce URL:

Torrent description

Movie ~ Tya Ratri Paus Hota ~ Xvid ~ 1 CD DVDRip ~ Subs ~ [ MDG Exclusive ]

Cast -
Amruta Subhash, Subodh Bhave, Sayaji Shinde, Sandeep Mehta, Milind Shinde and Sonali Kulkarni.

Tya Ratri Paus Hota   1 CD DVDRip   Subs   MDG Release preview 0
Code


General
Name : Tya Ratri Paus Hota
Format : AVI
Format/Info : Audio Video Interleave
Format profile : OpenDML
File size : 693 MiB
Duration : 1h 51mn
Overall bit rate : 866 Kbps
Writing application : AVI-Mux GUI 1.17.7, Aug 8 2006 20:59:17

Video
Format : MPEG-4 Visual
Format profile : Streaming [email protected]
Format settings, BVOP : Yes
Format settings, QPel : Yes
Format settings, GMC : No warppoints
Format settings, Matrix : Default (H.263)
Codec ID : XVID
Codec ID/Hint : XviD
Duration : 1h 51mn
Bit rate : 797 Kbps
Width : 640 pixels
Height : 272 pixels
Display aspect ratio : 2.35
Frame rate : 29.970 fps
Resolution : 24 bits
Colorimetry : 4:2:0
Scan type : Progressive
Bits/(Pixel*Frame) : 0.153
Stream size : 638 MiB (92%)
Writing library : XviD 1.2.1 (UTC 2008-12-04)

Audio
Format : MPEG Audio
Format version : Version 1
Format profile : Layer 3
Codec ID : 55
Codec ID/Hint : MP3
Duration : 1h 51mn
Bit rate mode : Constant
Bit rate : 64.0 Kbps
Channel(s) : 2 channels
Sampling rate : 48.0 KHz
Resolution : 16 bits
Stream size : 51.2 MiB (7%)
Alignment : Aligned on interleaves
Interleave, duration : 864 ms (25.91 Video frames)
Interleave, preload duration : 216 ms
Title : Tya Ratri Paus Hota.session-00.audio-00
Writing library : LAME3.97b
Encoding settings : -m j -V 4 -q 2


Plot

The film begins with Avinash (Subodh Bhave) being brought to a bungalow in an injured condition on a rainy day. A journalist, he is confined there as he tries to expose corrupt politician Shripatrao (Sayaji Shinde) during his election campaign and gets beaten up by his goons. Ravee (Amruta Subhash) too comes there with her group of friends. Avinash and Ravee come face to face and recognise each other despite several years of separation. Ravee has become a drug-addict due to circumstances. On that rainy day, they recall their days when they were kids and what led to their separation.

Gayatri (Sonali Kulkarni) and Vishwas (Sandip Mehta) lead a happy life in a village with their two kids, Avinash and Ravee. Gayatri manages the house as well as their business,which impresses Shripatrao. Vishwas is framed in a legal case and sent to jail. To release him, Gayatri seeks Shripatrao’s help and falls prey to his devious plan. When Vishwas sees Gayatri and Shripatrao in a compromising position, he walks out on her with Avinash and a happy family is shattered. Avinash grows up hating his mother and now years later, after meeting his sister, he gets to know the truth.


Screen
Tya Ratri Paus Hota   1 CD DVDRip   Subs   MDG Release preview 1
Tya Ratri Paus Hota   1 CD DVDRip   Subs   MDG Release preview 2
Tya Ratri Paus Hota   1 CD DVDRip   Subs   MDG Release preview 3
Tya Ratri Paus Hota   1 CD DVDRip   Subs   MDG Release preview 4
Tya Ratri Paus Hota   1 CD DVDRip   Subs   MDG Release preview 5
Tya Ratri Paus Hota   1 CD DVDRip   Subs   MDG Release preview 6
Tya Ratri Paus Hota   1 CD DVDRip   Subs   MDG Release preview 7
Tya Ratri Paus Hota   1 CD DVDRip   Subs   MDG Release preview 8
Tya Ratri Paus Hota   1 CD DVDRip   Subs   MDG Release preview 9
Tya Ratri Paus Hota   1 CD DVDRip   Subs   MDG Release preview 10
Tya Ratri Paus Hota   1 CD DVDRip   Subs   MDG Release preview 11
Tya Ratri Paus Hota   1 CD DVDRip   Subs   MDG Release preview 12
Tya Ratri Paus Hota   1 CD DVDRip   Subs   MDG Release preview 13

........................

related torrents

Torrent name

health leech seeds Size
 

comments (0)

Main Menu