Other

Straight(2009)Hindi DVDRip XviD ~ Smeet

  • Download 5x Faster
  • Download torrent
  • Direct Download
  • Rate this torrent +  |  -
Straight(2009)Hindi DVDRip XviD ~ Smeet

Free and Direct Download with Usenet.nl 300GB+ free


Torrent info

Name:Straight(2009)Hindi DVDRip XviD ~ Smeet

Total Size: 698.45 MB

Magnet: Magnet Link

Seeds: 0

Leechers: 0

Stream: Watch Online @ Movie4u

Last Updated: 2011-06-18 19:33:13 (Update Now)

Torrent added: 2009-08-30 22:23:29





Torrent Files List


smeet.nfo (Size: 698.45 MB) (Files: 2)

 smeet.nfo

6.90 KB

 Straight(2009)Hindi-DVDRip-XviD ~ Smeet.avi

698.44 MB
 

Announce URL: http://ictorrent.com:2710/announce

Torrent description


################## TM
##^^^^^^^^^^^^^^^^####
############## #^^^^^^^^^^^^^^^^^^^##
###### #### #########^^^^^# #^^^^^#########^^^^^#
###### ####### ###########^^^# #^^^^^^^^^^^^^#^^^^^#
####### ####### ############^^## #^^^^^^^^^^^^^#^^^^^#
################################# ############^^^###^^^^^^^^^^^^^#^^^^^#
############################################^#^^#^^^^^^^^^^^^^^^^#^^^^^#
#####################################^^^^^^^^#^^#########^^^#######^^^^#####
####################################^^^^^^^^^##^^^^^^^^^##^^#^^^^^^^^^^^^^^##
####################################^^^^^^^^^^###^^^^^^^^#^^#^^^^^^^^^^^^^^^##
######################### ##########^^^^^####^^##^^^^^^^^#^^#^^^^^^^^^^^^^^^##
####################################^########^^#^#########^^######^^^^^######
#############################################^^#^#^^^^^^^^^^^^^^^#^^^^^#
##############################################^#^#^^^^^^^^^^^^^^^#^^^^^#
##############################################^#^#^^^^^^^^^^^^^^^#^^^^^#
##################################^^^^^^^^^^#^#^^^^^^^^^^^^^^^#^^^^^#
############################################^^^#^##^^^^^^^^^^^^^^#^^^^^#
##############################################^#^^^###^^^^^^^^^^^#^^^^^#
#################################################^^^^#^^^^^^^^^^^#^^^^^#
###############################################^######^^^^^^^^^^^#^^^^^#
###################### ###### ##############^^^^^^^^^^^########^^^^^#
###################### ###### ##############^^##^^^^^^^# #^^^^^^#
###################### ###### ##################^^^^^^^# #^^^^^^#
############## ############### ######^^# ########
############## ############### ###
#############
MEANS QUALITY

=======================================================
= Straight (2009/II) =
=======================================================

|##############################################################################|
| |
|GENERAL INFORMATION |
|=================== |
|Format : AVI |
|Format/Info : Audio Video Interleave |
|Format profile : OpenDML |
|File size : 698 MiB |
|Duration : 1h 49mn |
|Overall bit rate : 888 Kbps |
|Language : Hindi, Urdu (Indian/pakistani viewrs) |
|SUBTITLE : No |
|GENRE : Comedy |
|IMDB LINK : http://www.imdb.com/title/tt1399602/ |
|IMDB RATING : 6.7/10 |
|RIPPER : SMEET |
|##############################################################################|

|##############################################################################|
| |
|Video |
|Format : MPEG-4 Visual |
|Format settings, Matrix : Default (H.263) |
|Codec ID : XVID |
|Codec ID/Hint : XviD |
|Duration : 1h 49mn |
|Width : 640 pixels |
|Height : 272 pixels |
|Display aspect ratio : 2.35 |
|Frame rate : 29.970 fps |
|Resolution : 24 bits |
|Colorimetry : 4:2:0 |
|Scan type : Progressive |
|Bits/(Pixel*Frame) : 0.145 |
|Stream size : 594 MiB (85%) |
|Writing library : XviD 1.2.1 (UTC 2008-12-04) rter. |
|##############################################################################|
|Audio |
|Format : MPEG Audio |
|Format version : Version 1 |
|Format profile : Layer 3 |
|Codec ID : 55 |
|Codec ID/Hint : MP3 |
|Duration : 1h 49mn |
|Bit rate mode : Constant |
|Bit rate : 128 Kbps |
|Channel(s) : 2 channels |
|Sampling rate : 48.0 KHz |
|Resolution : 16 bits |
|Stream size : 101 MiB (14%) |
|Alignment : Aligned on interleaves |
|Interleave, duration : 861 ms (25.81 video frames) |
|Interleave, preload duration : 216 ms |
|Title : smeet_straight T80 3_2ch 448Kbps DELAY 0ms |
|Writing library : LAME3.98r |
|Encoding settings : -m j -V 4 -q 2 -lowpass 17 -b 128 |
|##############################################################################|








related torrents

Torrent name

health leech seeds Size
 

comments (0)

Main Menu