Other

Shortkut The Con Is On (2009) [PIRATEWAREZ MY1 RU]

  • Download 5x Faster
  • Download torrent
  • Direct Download
  • Rate this torrent +  |  -

Torrent info

Name:Shortkut The Con Is On (2009) [PIRATEWAREZ MY1 RU]

Total Size: 681.79 MB

Magnet: Magnet Link

Seeds: 0

Leechers: 0

Stream: Watch Full Movie @ Movie4u

Last Updated: 2017-02-21 04:08:42 (Update Now)

Torrent added: 2009-08-30 22:21:17



VPN For Torrents

Torrent Files List


Shortkut.2009.1CD.PDVD.RIP.ronak-[piratewarez.my1.ru].DUS[H33T].avi (Size: 681.79 MB) (Files: 5)

 Shortkut.2009.1CD.PDVD.RIP.ronak-[piratewarez.my1.ru].DUS[H33T].avi

681.78 MB

 Shortkut.nfo

5.13 KB

 Torrent downloaded from Demonoid.com.txt

0.05 KB

 tracked_by_h33t_com.txt

0.02 KB

 Downloaded from Piratewarez.my1.ru.txt

0.02 KB
 

tracker

leech seeds
 

Torrent description



General
Format : AVI
Format/Info : Audio Video Interleave
Format profile : OpenDML
File size : 682 MiB
Duration : 2h 16mn
Overall bit rate : 700 Kbps
Writing application : AVI-Mux GUI 1.17.7, Aug 8 2006 20:59:17

Video
Format : MPEG-4 Visual
Format profile : Streaming [email protected]
Format settings, BVOP : Yes
Format settings, QPel : No
Format settings, GMC : No warppoints
Format settings, Matrix : Default (H.263)
Codec ID : XVID
Codec ID/Hint : XviD
Duration : 2h 16mn
Bit rate : 585 Kbps
Width : 608 pixels
Height : 256 pixels
Display aspect ratio : 2.35
Frame rate : 23.976 fps
Resolution : 24 bits
Colorimetry : 4:2:0
Scan type : Progressive
Bits/(Pixel*Frame) : 0.157
Stream size : 570 MiB (84%)
Writing library : XviD 1.2.1 (UTC 2008-12-04)

Audio
Format : MPEG Audio
Format version : Version 1
Format profile : Layer 3
Codec ID : 55
Codec ID/Hint : MP3
Duration : 2h 16mn
Bit rate mode : Variable
Bit rate : 106 Kbps
Channel(s) : 2 channels
Sampling rate : 48.0 KHz
Resolution : 16 bits
Stream size : 103 MiB (15%)
Alignment : Aligned on interleaves
Interleave, duration : 24 ms (0.58 video frame)
Interleave, preload duration : 188 ms
Title : mp3



Thanks & Enjoy!!!:)

related torrents

Torrent name

health leech seeds Size
 


comments (0)

Main Menu

 

script data-cfasync="false" src="//d2ghscazvn398x.cloudfront.net/?cshgd=690275">