Other

Sholay 1975

  • Download 5x Faster
  • Download torrent
  • Direct Download
  • Rate this torrent +  |  -
Sholay 1975

Anonymous and Free Direct Download 300GB+


Torrent info

Name:Sholay 1975

Total Size: 2.04 GB

Magnet: Magnet Link

Seeds: 0

Leechers: 0

Stream: Watch Online @ Movie4u

Last Updated: 2013-04-12 07:52:54 (Update Now)

Torrent added: 2009-08-30 22:20:56



VPN For Torrents

Torrent Files List


sholay DVD Rip TEam DUS.avi (Size: 2.04 GB) (Files: 1)

 sholay DVD Rip TEam DUS.avi

2.04 GB
 

Announce URL:

Torrent description

Sholay.1975.DVDRiP.Xvid.Ac3.Ranger.Team.DUS


Code:

Format : AVI
Format/Info : Audio Video Interleave
Format profile : OpenDML
File size : 2.04 GiB
Duration : 3h 25mn
Overall bit rate : 1 423 Kbps


Video
Format : MPEG-4 Visual
Format settings, BVOP : Yes
Format settings, QPel : No
Format settings, GMC : No warppoints
Format settings, Matrix : Default
Codec ID : XVID
Codec ID/Hint : XviD
Duration : 3h 25mn
Bit rate : 1 033 Kbps
Width : 656 pixels
Height : 480 pixels
Display aspect ratio : 4/3
Frame rate : 23.976 fps
Resolution : 24 bits
Colorimetry : 4:2:0
Scan type : Progressive
Bits/(Pixel*Frame) : 0.137
Stream size : 1.48 GiB (73%)


Audio
Format : AC-3
Format/Info : Audio Coding 3
Codec ID : 2000
Duration : 3h 25mn
Bit rate mode : Constant
Bit rate : 384 Kbps
Channel(s) : 2 channels
Channel positions : L R
Sampling rate : 48.0 KHz
Stream size : 564 MiB (27%)
Alignment : Aligned on interleaves

Sholay.1975.MCCE.NTSC.DRs

IMDB http://www.imdb.com/title/tt0073707/

SCREENSHOTS
Sholay 1975 preview 0
Sholay 1975 preview 1
Sholay 1975 preview 2
Sholay 1975 preview 3
Sholay 1975 preview 4
Sholay 1975 preview 5
Sholay 1975 preview 6
Sholay 1975 preview 7
...............................

related torrents

Torrent name

health leech seeds Size
 


comments (0)

Main Menu