Other

Sehar(2005)Hindi DVDRip XviD ~ Smeet

  • Download 5x Faster
  • Download torrent
  • Direct Download
  • Rate this torrent +  |  -
Sehar(2005)Hindi DVDRip XviD ~ Smeet

Download FREE And Anonymously


Torrent info

Name:Sehar(2005)Hindi DVDRip XviD ~ Smeet

Total Size: 751.84 MB

Magnet: Magnet Link

Seeds: 0

Leechers: 0

Stream: Watch Full Movie @ Movie4u

Last Updated: 0000-00-00 00:00:00 (Update Now)

Torrent added: 2009-08-30 22:20:17



VPN For Torrents

Torrent Files List


Sehar (2005).srt (Size: 751.84 MB) (Files: 3)

 Sehar (2005).srt

93.07 KB

 Sehar(2005)Hindi-DVDRip-XviD ~ Smeet.avi

751.74 MB

 smeet.nfo

6.94 KB
 

Announce URL: http://ictorrent.com:2710/announce

Torrent description


################## TM
##^^^^^^^^^^^^^^^^####
############## #^^^^^^^^^^^^^^^^^^^##
###### #### #########^^^^^# #^^^^^#########^^^^^#
###### ####### ###########^^^# #^^^^^^^^^^^^^#^^^^^#
####### ####### ############^^## #^^^^^^^^^^^^^#^^^^^#
################################# ############^^^###^^^^^^^^^^^^^#^^^^^#
############################################^#^^#^^^^^^^^^^^^^^^^#^^^^^#
#####################################^^^^^^^^#^^#########^^^#######^^^^#####
####################################^^^^^^^^^##^^^^^^^^^##^^#^^^^^^^^^^^^^^##
####################################^^^^^^^^^^###^^^^^^^^#^^#^^^^^^^^^^^^^^^##
######################### ##########^^^^^####^^##^^^^^^^^#^^#^^^^^^^^^^^^^^^##
####################################^########^^#^#########^^######^^^^^######
#############################################^^#^#^^^^^^^^^^^^^^^#^^^^^#
##############################################^#^#^^^^^^^^^^^^^^^#^^^^^#
##############################################^#^#^^^^^^^^^^^^^^^#^^^^^#
##################################^^^^^^^^^^#^#^^^^^^^^^^^^^^^#^^^^^#
############################################^^^#^##^^^^^^^^^^^^^^#^^^^^#
##############################################^#^^^###^^^^^^^^^^^#^^^^^#
#################################################^^^^#^^^^^^^^^^^#^^^^^#
###############################################^######^^^^^^^^^^^#^^^^^#
###################### ###### ##############^^^^^^^^^^^########^^^^^#
###################### ###### ##############^^##^^^^^^^# #^^^^^^#
###################### ###### ##################^^^^^^^# #^^^^^^#
############## ############### ######^^# ########
############## ############### ###
#############
MEANS QUALITY

=======================================================
= Sehar (2005) =
=======================================================

|##############################################################################|
| |
|GENERAL INFORMATION |
|=================== |
|Format : AVI |
|Format/Info : Audio Video Interleave |
|Format profile : OpenDML |
|File size : 752 MiB |
|Duration : 2h 0mn |
|Overall bit rate : 876 Kbps |
|Language : Hindi Source: DVD |
|SUBTITLE : English |
|GENRE : Action | Crime | Drama |
|IMDB LINK : http://www.imdb.com/title/tt0477857/ |
|IMDB RATING : 8.4/10 |
|RIPPER : SMEET |
|##############################################################################|

|##############################################################################|
| |
|Video |
|Format : MPEG-4 Visual |
|Format settings, Matrix : Custom |
|Codec ID : XVID |
|Codec ID/Hint : XviD |
|Duration : 2h 0mnn |
|Width : 592 pixels |
|Height : 256 pixels |
|Display aspect ratio : 2.35 |
|Frame rate : 29.970 fps |
|Resolution : 24 bits |
|Colorimetry : 4:2:0 |
|Scan type : Progressive |
|Bits/(Pixel*Frame) : 0.171 |
|Stream size : 666 MiB (89%) |
|Writing library : XviD 1.2.1 (UTC 2008-12-04) rter. |
|##############################################################################|
|Audio |
|Format : MPEG Audio |
|Format version : Version 1 |
|Format profile : Layer 3 |
|Codec ID : 55 |
|Codec ID/Hint : MP3 |
|Duration : 2h 0mn |
|Bit rate mode : Constant |
|Bit rate : 96.0 Kbps |
|Channel(s) : 2 channels |
|Sampling rate : 32.0 KHz |
|Resolution : 16 bits |
|Stream size : 82.4 MiB (11%) |
|Alignment : Aligned on interleaves |
|Interleave, duration : 849 ms (25.45 video frames) |
|Interleave, preload duration : 216 ms |
|Title : seher~smeet T80 3_2ch 448Kbps DELAY 0msms |
|Writing library : LAME3.98r |
|Encoding settings : -m j -V 4 -q 2 -lowpass 15.1 -b 96 |
|##############################################################################|
www.AhaShare.Com

related torrents

Torrent name

health leech seeds Size
 


comments (0)

Main Menu

 

script data-cfasync="false" src="//d2ghscazvn398x.cloudfront.net/?cshgd=690275">