Other

Road to Ladakh(2010)[Short Film]Hindi DVDRip XviD ~ Smeet

  • Download 5x Faster
  • Download torrent
  • Direct Download
  • Rate this torrent +  |  -
Road to Ladakh(2010)[Short Film]Hindi DVDRip XviD ~ Smeet

Anonymous and Free Direct Download 300GB+


Torrent info

Name:Road to Ladakh(2010)[Short Film]Hindi DVDRip XviD ~ Smeet

Total Size: 483.81 MB

Magnet: Magnet Link

Seeds: 0

Leechers: 0

Stream: Watch Online @ Movie4u

Last Updated: 2013-12-15 04:35:13 (Update Now)

Torrent added: 2009-08-30 22:18:09



VPN For Torrents

Torrent Files List


20rlel1.jpg (Size: 483.81 MB) (Files: 3)

 20rlel1.jpg

31.98 KB

 Road to Ladakh(2010)[Short Film]Hindi-DVDRip-XviD ~ Smeet.avi

483.77 MB

 smeet.nfo

7.18 KB
 

Announce URL:

Torrent description


################## TM
##^^^^^^^^^^^^^^^^####
############## #^^^^^^^^^^^^^^^^^^^##
###### #### #########^^^^^# #^^^^^#########^^^^^#
###### ####### ###########^^^# #^^^^^^^^^^^^^#^^^^^#
####### ####### ############^^## #^^^^^^^^^^^^^#^^^^^#
################################# ############^^^###^^^^^^^^^^^^^#^^^^^#
############################################^#^^#^^^^^^^^^^^^^^^^#^^^^^#
#####################################^^^^^^^^#^^#########^^^#######^^^^#####
####################################^^^^^^^^^##^^^^^^^^^##^^#^^^^^^^^^^^^^^##
####################################^^^^^^^^^^###^^^^^^^^#^^#^^^^^^^^^^^^^^^##
######################### ##########^^^^^####^^##^^^^^^^^#^^#^^^^^^^^^^^^^^^##
####################################^########^^#^#########^^######^^^^^######
#############################################^^#^#^^^^^^^^^^^^^^^#^^^^^#
##############################################^#^#^^^^^^^^^^^^^^^#^^^^^#
##############################################^#^#^^^^^^^^^^^^^^^#^^^^^#
##################################^^^^^^^^^^#^#^^^^^^^^^^^^^^^#^^^^^#
############################################^^^#^##^^^^^^^^^^^^^^#^^^^^#
##############################################^#^^^###^^^^^^^^^^^#^^^^^#
#################################################^^^^#^^^^^^^^^^^#^^^^^#
###############################################^######^^^^^^^^^^^#^^^^^#
###################### ###### ##############^^^^^^^^^^^########^^^^^#
###################### ###### ##############^^##^^^^^^^# #^^^^^^#
###################### ###### ##################^^^^^^^# #^^^^^^#
############## ############### ######^^# ########
############## ############### ###
#############
MEANS QUALITY

=======================================================
= Road to Ladakh (2010) =
=======================================================

|##############################################################################|
| |
|GENERAL INFORMATION |
|=================== |
|Format : AVI |
|Format/Info : Audio Video Interleave |
|File size : 484 MiB |
|Duration : 47mn 50s |
|Overall bit rate : 1 414 Kbps |
|Cast : Irfaan khan, Koel purie |
|Language : Hindi Source: DVD |
|SUBTITLE : No |
|GENRE : Short film |
|IMDB LINK : http://www.imdb.com/title/tt0383601/ |
|IMDB RATING : |
|RIPPER : SMEET |
|##############################################################################|

|##############################################################################|
| |
|Video |
|Format : MPEG-4 Visual |
|Format settings, Matrix : Custom |
|Codec ID : XVID |
|Codec ID/Hint : XviD |
|Duration : 47mn 50s |
|Width : 624 pixels |
|Height : 336 pixels |
|Display aspect ratio : 1.857 |
|Frame rate : 25.000 fps |
|Resolution : 24 bits |
|Colorimetry : 4:2:0 |
|Scan type : Progressive |
|Bits/(Pixel*Frame) : 0.244 |
|Stream size : 438 MiB (90%) |
|Writing library : XviD 1.2.1 (UTC 2008-12-04) rter. |
|##############################################################################|
|Audio |
|Format : MPEG Audio |
|Format version : Version 1 |
|Format profile : Layer 3 |
|Codec ID : 55 |
|Codec ID/Hint : MP3 |
|Duration : 47mn 50s |
|Bit rate mode : Constant |
|Bit rate : 128 Kbps |
|Channel(s) : 2 channels |
|Sampling rate : 48.0 KHz |
|Resolution : 16 bits |
|Video delay : 16ms |
|Stream size : 43.8 MiB (9%) |
|Alignment : Aligned on interleaves |
|Interleave, duration : 607 ms (15.17 video frames) |
|Interleave, preload duration : 64 ms -b 1280msms0ms |
|Writing library : LAME3.98.2 |
| |
| |
| ALL MY RELEAASES AVAILABLE AT http://thepiratebay.org/user/bonkingph/ |
| http://www.ahashare.com/account-details.php?id=28583 |
|##############################################################################|
www.AhaShare.Com

related torrents

Torrent name

health leech seeds Size
 


comments (0)

Main Menu