Other

Rangeela (1995) 2CD DVDRIP Dipp

  • Download 5x Faster
  • Download torrent
  • Direct Download
  • Rate this torrent +  |  -
Rangeela (1995) 2CD DVDRIP Dipp

Anonymous and Free Direct Download 300GB+


Torrent info

Name:Rangeela (1995) 2CD DVDRIP Dipp

Total Size: 1.37 GB

Magnet: Magnet Link

Seeds: 0

Leechers: 0

Stream: Watch Online @ Movie4u

Last Updated: 2011-11-23 19:00:08 (Update Now)

Torrent added: 2009-08-30 22:17:29



VPN For Torrents

Torrent Files List


Rangeela (1995) 2CD DVDRIP [RdY] [Wulfric]~EXTREME SEEDING~ CD1.avi (Size: 1.37 GB) (Files: 2)

 Rangeela (1995) 2CD DVDRIP [RdY] [Wulfric]~EXTREME SEEDING~ CD1.avi

700.43 MB

 Rangeela (1995) 2CD DVDRIP [RdY] [Wulfric]~EXTREME SEEDING~ CD2.avi

701.51 MB
 

Announce URL: http://tracker.desibbrg.com:2710/00017f7e58e6e52a3278221378123bcf/announce

Torrent description

Format : AVI
Format/Info : Audio Video Interleave
File size : CD 1 700 MiB CD 2 700 MiB
Overall bit rate : 1 436 Kbps
Writing application : VirtualDubMod 1.5.4.1 (build 2178/release)
Writing library : VirtualDubMod build 2178/release

Video
Format : MPEG-4 Visual
Format profile : Streaming [email protected]
Format settings, BVOP : Yes
Format settings, QPel : No
Format settings, GMC : No warppoints
Format settings, Matrix : Custom
Codec ID : XVID
Codec ID/Hint : XviD
Bit rate : 981 Kbps
Width : 608 pixels
Height : 240 pixels
Display aspect ratio : 2.533
Frame rate : 23.976 fps
Resolution : 24 bits
Colorimetry : 40
Scan type : Progressive
Bits/(Pixel*Frame) : 0.280
Stream size : 479 MiB (68%)
Writing library : XviD 1.1.2 (UTC 2006-11-01)

Audio
Format : AC-3
Format/Info : Audio Coding 3
Codec ID : 2000
Bit rate mode : Constant
Bit rate : 448 Kbps
Channel(s) : 6 channels
Channel positions : Front: L C R, Surround: L R, LFE
Sampling rate : 48.0 KHz
Stream size : 219 MiB (31%)
Alignment : Split accross interleaves
Interleave, duration : 96 ms (2.30 video frames)
Interleave, preload duration : 96 ms

related torrents

Torrent name

health leech seeds Size

Rangeela (1995)

1 1 85.09 MB 0

Rangeela (1995) (VMR)[

0 0 83.91 MB 0
 


comments (0)

Main Menu