Other

Rab Ne Bana Di Jodi 2 Channel AC3 900MB DVDRip N!CK

  • Download 5x Faster
  • Download torrent
  • Direct Download
  • Rate this torrent +  |  -
Rab Ne Bana Di Jodi 2 Channel AC3 900MB DVDRip N!CK

Anonymous and Free Direct Download


Torrent info

Name:Rab Ne Bana Di Jodi 2 Channel AC3 900MB DVDRip N!CK

Total Size: 899.97 MB

Magnet: Magnet Link

Seeds: 0

Leechers: 0

Stream: Watch Online @ Movie4u

Last Updated: 2014-02-05 07:52:38 (Update Now)

Torrent added: 2009-08-30 22:15:47



VPN For Torrents

Torrent Files List


Release Info.txt (Size: 899.97 MB) (Files: 3)

 Release Info.txt

1.19 KB

 RNBDJ(Sample)-N!CK.avi

6.82 MB

 RNBDJ-N!CK.avi

893.15 MB
 

Announce URL:

Torrent description

~~~~ Rab Ne Bana Di Jodi 2008 DVDRip - N!CK ~~~~

Format : AVI
Format/Info : Audio Video Interleave
File size : 893 MiB
Duration : 2h 44mn
Overal bit rate : 760 Kbps

Video
Codec : XVID
Duration : 2h 44mn
Bit rate : 686 Kbps
Width : 640 pixels
Height : 288 pixels
Display aspect ratio : 2.222
Frame rate : 23.976 fps
Resolution : 8 bits
Colorimetry : 4:2:0
Scan type : Progressive
Bits/(Pixel*Frame) : 0.155
Stream size : 805 MiB
Writing library : XviD 1.2.0.dev47 (UTC 2006-11-01)

Audio
Format : AC-3
Format/Info : Audio Coding 3
Codec ID : 2000
Bit rate mode : Constant
Bit rate : 64.0 Kbps
Channel(s) : 2 channels
Channel positions : L R
Sampling rate : 48.0 KHz
Stream size : 75.2 MiB

related torrents

Torrent name

health leech seeds Size
 


comments (0)

Main Menu