Other

Mi Shivaji Raje Bhosale Boltoy 2009 1CD Pre DVDRip

  • Download 5x Faster
  • Download torrent
  • Direct Download
  • Rate this torrent +  |  -
Mi Shivaji Raje Bhosale Boltoy 2009 1CD Pre DVDRip

Free and Direct Download with Usenet.nl 300GB+ free


Torrent info

Name:Mi Shivaji Raje Bhosale Boltoy 2009 1CD Pre DVDRip

Total Size: 701.21 MB

Magnet: Magnet Link

Seeds: 0

Leechers: 0

Stream: Watch Online @ Movie4u

Last Updated: 2015-10-19 15:34:34 (Update Now)

Torrent added: 2009-08-30 22:07:34





Torrent Files List


Info.nfo (Size: 701.21 MB) (Files: 2)

 Info.nfo

1.87 KB

 Mi.Shivaji.Raje.Bhosale.Boltoy.2009.1CD.Pre-DVDRip.avi

701.21 MB
 

Announce URL:

Torrent description

Mi Shivaji Raje Bhosale Boltoy 2009 1CD PreDVDRip

INFO
General
Format : AVI
Format/Info : Audio Video Interleave
File size : 701 MiB
Duration : 2h 22mn
Overall bit rate : 687 Kbps

Video
Format : MPEG-4 Visual
Format settings, BVOP : Yes
Format settings, QPel : No
Format settings, GMC : No warppoints
Format settings, Matrix : Default
Codec ID : DX50
Codec ID/Hint : DivX 5
Duration : 2h 22mn
Bit rate : 516 Kbps
Width : 608 pixels
Height : 352 pixels
Display aspect ratio : 16/9
Frame rate : 29.970 fps
Resolution : 24 bits
Colorimetry : 4:2:0
Scan type : Progressive
Bits/(Pixel*Frame) : 0.080
Stream size : 526 MiB (75%)
Title : Video
Writing library : DivX 6.8.2 (UTC 2008-05-17)

Audio
Format : MPEG Audio
Format version : Version 1
Format profile : Layer 3
Codec ID : 55
Codec ID/Hint : MP3
Duration : 2h 22mn
Bit rate mode : Constant
Bit rate : 160 Kbps
Channel(s) : 2 channels
Sampling rate : 44.1 KHz
Resolution : 16 bits
Stream size : 163 MiB (23%)
Alignment : Split accross interleaves
Interleave, duration : 33 ms (1.00 video frame)
Interleave, preload duration : 500 ms
Title : Audio

SCREEN SHOTS

Mi Shivaji Raje Bhosale Boltoy 2009 1CD Pre DVDRip preview 0
Mi Shivaji Raje Bhosale Boltoy 2009 1CD Pre DVDRip preview 1
Mi Shivaji Raje Bhosale Boltoy 2009 1CD Pre DVDRip preview 2
Mi Shivaji Raje Bhosale Boltoy 2009 1CD Pre DVDRip preview 3

related torrents

Torrent name

health leech seeds Size
 

comments (0)

Main Menu