Other

Mere Yaar Ki Shaadi Hai (2002) 2CD DVD RIP ~VR~ [BrG] [email protected]

  • Download 5x Faster
  • Download torrent
  • Direct Download
  • Rate this torrent +  |  -

Torrent info

Name:Mere Yaar Ki Shaadi Hai (2002) 2CD DVD RIP ~VR~ [BrG] [email protected]

Total Size: 1.37 GB

Magnet: Magnet Link

Seeds: 0

Leechers: 0

Stream: Watch Online @ Movie4u

Last Updated: 2016-02-03 13:35:02 (Update Now)

Torrent added: 2009-08-30 22:07:12




Torrent Files List


Mere Yaar Ki Shaadi Hai (2002) 2CD DVD RIP ~VR~ [BrG] [email protected] CD1.avi (Size: 1.37 GB) (Files: 3)

 Mere Yaar Ki Shaadi Hai (2002) 2CD DVD RIP ~VR~ [BrG] [email protected] CD1.avi

700.15 MB

 Mere Yaar Ki Shaadi Hai (2002) 2CD DVD RIP ~VR~ [BrG] [email protected] CD2.avi

700.22 MB

 Mere Yaar Ki Shaadi Hai (2002).nfo

15.23 KB
 

tracker

leech seeds
 

Torrent description

[WwW.BindassDesi.CoM - Ratio Free Downloads @ High Speed]
For ScreenShots And File Info Check Dis - http://www.bindassdesi.com/forums/


????
??????
????????????????????????????????????????????????????????????????????
? ??? ????????????? ??? ?
??????????????????????????????? ???????????????????????????????
???????????????????????????????? ?????? ????????????????????????????????
????????????????????????????????? ?????????????????????????????????
?????????????????????????????????? ??????????????????????????????????
??????????????????????????????????????????????????????????????????????????
?????????????????????. .???????????????????. .????????????????????
????????????????????. .????????????????? ??????????????????
???????????????????. ... .?????????????=. ?????????????????
??????????????????? .???. .???????????= ... ????????????????
??????????????????? .?????. .??????????. .??????. ?????????????????
??????????????????? .?????. .????. .. ???????????????????????????
??????????????????? .???. .????. .???????????????????????????
??????????????????? ... .????? ????????????????????????????
??????????????????? .????? ??. ????????. ??????????????????
???????????????????. .???? ???? ??????.. ?????????????????
??????????????????? .???? ???? .???????. ????????????????
??????????????????? ???. .???...????. ????????. ???????????????
??????????????????? ????? ......????? .???????? ???????????????
??????????????????? .????? ......?????. ???????? ???????????????
??????????????????? ??? ??....??????. .????? ???????????????
??????????????????? .. .?????????????. ??? ????????????????
???????????????????. .??????????????? ????????????????
????????????????????. .????????????????? .?????????????????
?????????????????????. .?????? ???????? ..???????????????????
????????????????????????????????? ?????????????????????????????????
???????????????????????????????? ?????? ????????????????????????????????
??????????????????????????????? ???????????????????????????????

- Bindass Release Group -
Proudly Presents
??????
?????????????????????????????????????????????????????????????????????
? ??? ?????????????? ??? ?

Mere Yaar Ki Shaadi Hai (2002)
??????
?????????????????????????????????????????????????????????????????????
? ??? ?????????????? ??? ?


[Plot Summary]

Genre: Romantic

Director: Sanjay Gadhvi

Cast: Uday Chopra, Tulip Joshi, Jimmy Shergill, Bipasha Basu

Story: Sanjay Malhotra (Uday Chopra) is living in Mumbai
with his friend Ria (Bipasha Basu).
Unfortunately Sanjay has loved Anjali for years.
Jealous and frustrated Sanjay makes his way to Anjali
with one intention - to stop this marriage. Sanjay goes
to Anjali\'s home and soon meets her husband to be,
Rohit Khanna (Jimmy Shergill). Sanjay then begins to scheme.
He organises a bachelor party for Rohit and all other males
in the family. Rohit ends up completely drunk as do all
the other males in the family. However Rohit has picked up
on the fact that Sanjay is out to stop his marriage,
he vows to make sure that Sanjay fails in this.
Sanjay out of desperation gets Ria to come and pose as
his girlfriend. Eventually Sanjay and Anjali marry.

? ??? ?????????????? ??? ?
?????????????????????????????????????????????????????????????????????
??????

File Info

Format : AVI
Format/Info : Audio Video Interleave
File size : CD 1 700 MiB and CD 2 700 MiB
Duration : CD 1 1h 15mn and CD 2 1h 23mn
Overall bit rate : 1 295 Kbps
Writing application : VirtualDubMod 1.5.4.1 (build 2178/release)
Writing library : VirtualDubMod build 2178/release

Video
Format : MPEG-4 Visual
Format profile : Streaming [email protected]
Format settings, BVOP : Yes
Format settings, QPel : No
Format settings, GMC : No warppoints
Format settings, Matrix : Custom
Codec ID : XVID
Codec ID/Hint : XviD
Duration : CD 1 1h 15mn and CD 2 1h 23mn
Bit rate : 1 166 Kbps
Width : 640 pixels
Height : 288 pixels
Display aspect ratio : 2.222
Frame rate : 23.976 fps
Resolution : 24 bits
Colorimetry : 4:2:0
Scan type : Progressive
Bits/(Pixel*Frame) : 0.264
Stream size : 630 MiB (90%)
Writing library : XviD 1.2.1 (UTC 2008-12-04)

Audio
Format : MPEG Audio
Format version : Version 1
Format profile : Layer 3
Codec ID : 55
Codec ID/Hint : MP3
Duration : CD 1 1h 15mn and CD 2 1h 23mn
Bit rate mode : Variable
Bit rate : 118 Kbps
Nominal bit rate : 128 Kbps
Channel(s) : 2 channels
Sampling rate : 48.0 KHz
Resolution : 16 bits
Stream size : 63.3 MiB (9%)
Alignment : Aligned on interleaves
Interleave, duration : 24 ms (0.58 video frame)
Interleave, preload duration : 156 ms
Writing library : LAME3.98r
Encoding settings : -m j -V 4 -q 2 -lowpass 17 --abr 128
Language : Hindi / Hindi

??????
?????????????????????????????????????????????????????????????????????
? ??? ?????????????? ??? ?

Greetings

| RdY | TLrG | BrG Grp Members |

| BindassDesi Admins | Bindass Desi Moderators | Bindass Desi Techs |

All The Fans and Supporters
??????
?????????????????????????????????????????????????????????????????????
? ??? ?????????????? ??? ?

WwW.BindassDesi.CoM
Ratio Free Downloads @ High Speed

????
??????????????????????????????????????????????????????????????????????
???? ?????????????? ????
???? BrG ?????????????? BrG ????
??????????????????????????????????????????????????????????????????????
??????

related torrents

Torrent name

health leech seeds Size
 

comments (0)

Main Menu