Other

Kasha Saathi, Pota Saathi

  • Download 5x Faster
  • Download torrent
  • Direct Download
  • Rate this torrent +  |  -
Kasha Saathi, Pota Saathi

Free and Direct Download with Usenet.nl 300GB+ free


Torrent info

Name:Kasha Saathi, Pota Saathi

Total Size: 1.12 GB

Magnet: Magnet Link

Seeds: 2

Leechers: 1

Stream: Watch Online @ Movie4u

Last Updated: 0000-00-00 00:00:00 (Update Now)

Torrent added: 2009-08-30 21:58:20





Torrent Files List


MARATHI NATAK -- KASA SATHI POOTA SATHI.avi (Size: 1.12 GB) (Files: 1)

 MARATHI NATAK -- KASA SATHI POOTA SATHI.avi

1.12 GB
 

Announce URL: http://www.bwtorrents.com:6969/Perseus.asmx/announce?passkey=092dc1f06c9684db3bb77050d1979461

Torrent description

Dhamaal Comedy Natak with a social message

Cast: Satish Tare, Nutan Jayant, Subodh Pradhan, Raju Kadam, Shalaka, Swati, Babu and others

Media Info

Format : AVI
Format/Info : Audio Video Interleave
Format profile : OpenDML
File size : 1.12 GiB
Duration : 5h 0mn
Overall bit rate : 531 Kbps
Writing application : Lavf52.20.0

Video
Format : xvid
Codec ID : xvid
Duration : 5h 0mn
Bit rate : 474 Kbps
Width : 524 pixels
Height : 360 pixels
Display aspect ratio : 1.456
Frame rate : 25.000 fps
Resolution : 24 bits
Bits/(Pixel*Frame) : 0.101
Stream size : 1 021 MiB (89%)

Audio
Format : MPEG Audio
Format version : Version 1
Format profile : Layer 3
Codec ID : 55
Codec ID/Hint : MP3
Duration : 1h 58mn
Bit rate mode : Constant
Bit rate : 128 Kbps
Channel(s) : 2 channels
Sampling rate : 44.1 KHz
Resolution : 16 bits
Stream size : 109 MiB (10%)
Alignment : Aligned on interleaves
Interleave, duration : 26 ms (0.65 video frame)

SCREEN
Kasha Saathi, Pota Saathi preview 0
Kasha Saathi, Pota Saathi preview 1
Kasha Saathi, Pota Saathi preview 2
Kasha Saathi, Pota Saathi preview 3
Kasha Saathi, Pota Saathi preview 4
Kasha Saathi, Pota Saathi preview 5

related torrents

Torrent name

health leech seeds Size

9 POTA - 9 ROTA

1 0 1.44 GB 0
 

comments (0)

Main Menu