Other

Kambakkht Ishq 2009[piratewarez my1 ru]

  • Download 5x Faster
  • Download torrent
  • Direct Download
  • Rate this torrent +  |  -
Kambakkht Ishq 2009[piratewarez my1 ru]

Anonymous and Free Direct Download 300GB+


Torrent info

Name:Kambakkht Ishq 2009[piratewarez my1 ru]

Total Size: 690.49 MB

Magnet: Magnet Link

Seeds: 0

Leechers: 0

Stream: Watch Online @ Movie4u

Last Updated: 2010-09-15 19:00:27 (Update Now)

Torrent added: 2009-08-30 21:57:33



VPN For Torrents

Torrent Files List


Kambakkht_Ishq_2009[piratewarez.my1.ru].avi (Size: 690.49 MB) (Files: 3)

 Kambakkht_Ishq_2009[piratewarez.my1.ru].avi

690.49 MB

 Torrent downloaded from Demonoid.com.txt

0.05 KB

 Downloaded from Piratewarez.my1.ru.txt

0.00 KB
 

Announce URL: http://tracker.exdesi.com:2710/announce

Torrent description

****************************************************
piratewarez.my1.ru -
****************************************************



[b]ABOUT THIS Video quality

General
Complete name :Kambakkht_Ishq_2009.avi
Format : AVI
Format/Info : Audio Video Interleave
Format profile : OpenDML
File size : 690 MiB
Duration : 2h 16mn
Overall bit rate : 707 Kbps
Writing application : AVI-Mux GUI 1.17.7, Aug 8 2006 20:59:17

Video
Format : MPEG-4 Visual
Format profile : Streaming [email protected]
Format settings, BVOP : Yes
Format settings, QPel : No
Format settings, GMC : No warppoints
Format settings, Matrix : Default (H.263)
Codec ID : XVID
Codec ID/Hint : XviD
Duration : 2h 16mn
Bit rate : 576 Kbps
Width : 640 pixels
Height : 272 pixels
Display aspect ratio : 2.35
Frame rate : 23.976 fps
Resolution : 24 bits
Colorimetry : 4:2:0
Scan type : Progressive
Bits/(Pixel*Frame) : 0.138
Stream size : 562 MiB (81%)
Writing library : XviD 1.2.1 (UTC 2008-12-04)

Audio
Format : MPEG Audio
Format version : Version 1
Format profile : Layer 3
Codec ID : 55
Codec ID/Hint : MP3
Duration : 2h 16mn
Bit rate mode : Constant
Bit rate : 128 Kbps
Channel(s) : 2 channels
Sampling rate : 48.0 KHz
Resolution : 16 bits
Stream size : 125 MiB (18%)
Alignment : Aligned on interleaves
Interleave, duration : 1178 ms (28.25 video frames)
Interleave, preload duration : 216 ms
Title : VTS_01_1 T80 2_0ch 384Kbps DELAY 0ms
Writing library : LAME3.98r
Encoding settings : -m j -V 4 -q 2 -lowpass 17 -b 128

related torrents

Torrent name

health leech seeds Size
 


comments (0)

Main Menu