Other

Gumrah (1963)Hindi DVDRip XviD ~ Smeet

  • Download 5x Faster
  • Download torrent
  • Direct Download
  • Rate this torrent +  |  -
Gumrah (1963)Hindi DVDRip XviD ~ Smeet

Free and Direct Download with Usenet.nl 300GB+ free


Torrent info

Name:Gumrah (1963)Hindi DVDRip XviD ~ Smeet

Total Size: 799.83 MB

Magnet: Magnet Link

Seeds: 0

Leechers: 0

Stream: Watch Online @ Movie4u

Last Updated: 0000-00-00 00:00:00 (Update Now)

Torrent added: 2009-08-30 21:48:05





Torrent Files List


Gumrah (1963)Hindi-DVDRip-XviD ~ Smeet.avi (Size: 799.83 MB) (Files: 2)

 Gumrah (1963)Hindi-DVDRip-XviD ~ Smeet.avi

799.82 MB

 smeet.nfo

6.94 KB
 

Announce URL:

Torrent description


################## TM
##^^^^^^^^^^^^^^^^####
############## #^^^^^^^^^^^^^^^^^^^##
###### #### #########^^^^^# #^^^^^#########^^^^^#
###### ####### ###########^^^# #^^^^^^^^^^^^^#^^^^^#
####### ####### ############^^## #^^^^^^^^^^^^^#^^^^^#
################################# ############^^^###^^^^^^^^^^^^^#^^^^^#
############################################^#^^#^^^^^^^^^^^^^^^^#^^^^^#
#####################################^^^^^^^^#^^#########^^^#######^^^^#####
####################################^^^^^^^^^##^^^^^^^^^##^^#^^^^^^^^^^^^^^##
####################################^^^^^^^^^^###^^^^^^^^#^^#^^^^^^^^^^^^^^^##
######################### ##########^^^^^####^^##^^^^^^^^#^^#^^^^^^^^^^^^^^^##
####################################^########^^#^#########^^######^^^^^######
#############################################^^#^#^^^^^^^^^^^^^^^#^^^^^#
##############################################^#^#^^^^^^^^^^^^^^^#^^^^^#
##############################################^#^#^^^^^^^^^^^^^^^#^^^^^#
##################################^^^^^^^^^^#^#^^^^^^^^^^^^^^^#^^^^^#
############################################^^^#^##^^^^^^^^^^^^^^#^^^^^#
##############################################^#^^^###^^^^^^^^^^^#^^^^^#
#################################################^^^^#^^^^^^^^^^^#^^^^^#
###############################################^######^^^^^^^^^^^#^^^^^#
###################### ###### ##############^^^^^^^^^^^########^^^^^#
###################### ###### ##############^^##^^^^^^^# #^^^^^^#
###################### ###### ##################^^^^^^^# #^^^^^^#
############## ############### ######^^# ########
############## ############### ###
#############
MEANS QUALITY

=======================================================
= Gumrah (1963) =
=======================================================

|##############################################################################|
| |
|GENERAL INFORMATION |
|=================== |
|Format : AVI |
|Format/Info : Audio Video Interleave |
|Format profile : OpenDML |
|File size : 800 MiB |
|Duration : 2h 29mn |
|Overall bit rate : 750 Kbps |
|Language : Hindi Source: DVD |
|SUBTITLE : No |
|GENRE : Drama | Family | Romance |
|IMDB LINK : http://www.imdb.com/title/tt0057120/ |
|IMDB RATING : 6.5/10 |
|RIPPER : SMEET |
|##############################################################################|

|##############################################################################|
| |
|Video |
|Format : MPEG-4 Visual |
|Format settings, Matrix : Custom |
|Codec ID : XVID |
|Codec ID/Hint : XviD |
|Duration : 2h 29mn |
|Width : 352 pixels |
|Height : 256 pixels |
|Display aspect ratio : 1.375 |
|Frame rate : 25.000 fps |
|Resolution : 24 bits |
|Colorimetry : 4:2:0 |
|Scan type : Progressive |
|Bits/(Pixel*Frame) : 0.289 |
|Stream size : 694 MiB (87%) |
|Writing library : XviD 1.2.1 (UTC 2008-12-04) rter. |
|##############################################################################|
|Audio |
|Format : MPEG Audio |
|Format version : Version 1 |
|Format profile : Layer 3 |
|Codec ID : 55 |
|Codec ID/Hint : MP3 |
|Duration : 2h 29mn |
|Bit rate mode : Constant |
|Bit rate : 96.0 Kbps |
|Channel(s) : 2 channels |
|Sampling rate : 32.0 KHz |
|Resolution : 16 bits |
|Stream size : 102 MiB (13%) |
|Alignment : Aligned on interleaves |
|Interleave, duration : 930 ms (23.25 video frames) |
|Interleave, preload duration : 216 ms |
|Title : ggg T80 2_0ch 192Kbps DELAY 0ms 24Kbpsms |
|Writing library : LAME3.98r |
|Encoding settings : -m j -V 4 -q 2 -lowpass 15.1 -b 962 |
|##############################################################################|
www.AhaShare.Com


related torrents

Torrent name

health leech seeds Size
 

comments (0)

Main Menu