Other

Ghajini 2009 DVDRip x264 400MB E Subs ERG

  • Download 5x Faster
  • Download torrent
  • Direct Download
  • Rate this torrent +  |  -
Ghajini 2009 DVDRip x264 400MB E Subs ERG

Free and Direct Download with Usenet.nl 300GB+ free


Torrent info

Name:Ghajini 2009 DVDRip x264 400MB E Subs ERG

Total Size: 388.90 MB

Magnet: Magnet Link

Seeds: 0

Leechers: 0

Stream: Watch Online @ Movie4u

Last Updated: 2011-01-03 05:24:48 (Update Now)

Torrent added: 2009-08-30 21:46:26





Torrent Files List


Ghajini.2009.DVDRip.x264.400MB.E-Subs.ERG.mp4 (Size: 388.90 MB) (Files: 2)

 Ghajini.2009.DVDRip.x264.400MB.E-Subs.ERG.mp4

388.80 MB

 Ghajini.2009.DVDRip.x264.400MB.E-Subs.ERG.srt

106.47 KB
 

Announce URL: http://tracker.thepiratebay.org/announce

Torrent description

Screen Shots
------------------------
Ghajini 2009 DVDRip x264 400MB E Subs ERG preview 0
Ghajini 2009 DVDRip x264 400MB E Subs ERG preview 1
Ghajini 2009 DVDRip x264 400MB E Subs ERG preview 2
Ghajini 2009 DVDRip x264 400MB E Subs ERG preview 3
Ghajini 2009 DVDRip x264 400MB E Subs ERG preview 4
Ghajini 2009 DVDRip x264 400MB E Subs ERG preview 5
Ghajini 2009 DVDRip x264 400MB E Subs ERG preview 6
Ghajini 2009 DVDRip x264 400MB E Subs ERG preview 7
Ghajini 2009 DVDRip x264 400MB E Subs ERG preview 8
Ghajini 2009 DVDRip x264 400MB E Subs ERG preview 9
Ghajini 2009 DVDRip x264 400MB E Subs ERG preview 10
Ghajini 2009 DVDRip x264 400MB E Subs ERG preview 11
Ghajini 2009 DVDRip x264 400MB E Subs ERG preview 12
Ghajini 2009 DVDRip x264 400MB E Subs ERG preview 13


File Info...
General
Complete name : Ghajini.2009.DVDRip.x264.400MB.E-Subs.ERG.mp4
Format : MPEG-4
Format profile : Base Media
Codec ID : isom
File size : 389 MiB
Duration : 3h 0mn
Overall bit rate : 301 Kbps
Encoded date : UTC 2009-08-15 10:28:43
Tagged date : UTC 2009-08-15 10:28:43

Video
ID : 1
Format : AVC
Format/Info : Advanced Video Codec
Format profile : [email protected]
Format settings, CABAC : Yes
Format settings, ReFrames : 3 frames
Codec ID : avc1
Codec ID/Info : Advanced Video Coding
Duration : 3h 0mn
Bit rate mode : Variable
Bit rate : 265 Kbps
Maximum bit rate : 1 267 Kbps
Width : 640 pixels
Height : 272 pixels
Display aspect ratio : 2.35
Frame rate mode : Constant
Frame rate : 23.976 fps
Resolution : 24 bits
Colorimetry : 4:2:0
Scan type : Progressive
Bits/(Pixel*Frame) : 0.063
Stream size : 342 MiB (88%)
Writing library : x264 core 71 r1210 42d6b17


Audio
ID : 2
Format : AAC
Format/Info : Advanced Audio Codec
Format version : Version 4
Format profile : LC
Format settings, SBR : No
Codec ID : 40
Duration : 3h 0mn
Bit rate mode : Variable
Bit rate : 32.0 Kbps
Maximum bit rate : 49.0 Kbps
Channel(s) : 2 channels
Channel positions : L R
Sampling rate : 48.0 KHz
Resolution : 16 bits
Stream size : 41.3 MiB (11%)
Encoded date : UTC 2009-08-15 10:29:00
Tagged date : UTC 2009-08-15 10:29:03


More Info: http://www.imdb.com/title/tt1166100/

related torrents

Torrent name

health leech seeds Size
 

comments (0)

Main Menu