Other

Gazal(1964)Hindi MpegCon XviD ~ Smeet

  • Download 5x Faster
  • Download torrent
  • Direct Download
  • Rate this torrent +  |  -
Gazal(1964)Hindi MpegCon XviD ~ Smeet

Free and Direct Download with Usenet.nl 300GB+ free


Torrent info

Name:Gazal(1964)Hindi MpegCon XviD ~ Smeet

Total Size: 800.57 MB

Magnet: Magnet Link

Seeds: 0

Leechers: 0

Stream: Watch Online @ Movie4u

Last Updated: 2014-06-25 05:53:34 (Update Now)

Torrent added: 2009-08-30 21:45:18





Torrent Files List


Gazal(1964)Hindi-MpegCon-XviD ~ Smeet.avi (Size: 800.57 MB) (Files: 2)

 Gazal(1964)Hindi-MpegCon-XviD ~ Smeet.avi

800.57 MB

 smeet.nfo

6.94 KB
 

Announce URL:

Torrent description


################## TM
##^^^^^^^^^^^^^^^^####
############## #^^^^^^^^^^^^^^^^^^^##
###### #### #########^^^^^# #^^^^^#########^^^^^#
###### ####### ###########^^^# #^^^^^^^^^^^^^#^^^^^#
####### ####### ############^^## #^^^^^^^^^^^^^#^^^^^#
################################# ############^^^###^^^^^^^^^^^^^#^^^^^#
############################################^#^^#^^^^^^^^^^^^^^^^#^^^^^#
#####################################^^^^^^^^#^^#########^^^#######^^^^#####
####################################^^^^^^^^^##^^^^^^^^^##^^#^^^^^^^^^^^^^^##
####################################^^^^^^^^^^###^^^^^^^^#^^#^^^^^^^^^^^^^^^##
######################### ##########^^^^^####^^##^^^^^^^^#^^#^^^^^^^^^^^^^^^##
####################################^########^^#^#########^^######^^^^^######
#############################################^^#^#^^^^^^^^^^^^^^^#^^^^^#
##############################################^#^#^^^^^^^^^^^^^^^#^^^^^#
##############################################^#^#^^^^^^^^^^^^^^^#^^^^^#
##################################^^^^^^^^^^#^#^^^^^^^^^^^^^^^#^^^^^#
############################################^^^#^##^^^^^^^^^^^^^^#^^^^^#
##############################################^#^^^###^^^^^^^^^^^#^^^^^#
#################################################^^^^#^^^^^^^^^^^#^^^^^#
###############################################^######^^^^^^^^^^^#^^^^^#
###################### ###### ##############^^^^^^^^^^^########^^^^^#
###################### ###### ##############^^##^^^^^^^# #^^^^^^#
###################### ###### ##################^^^^^^^# #^^^^^^#
############## ############### ######^^# ########
############## ############### ###
#############
MEANS QUALITY

=======================================================
= Gazal (1964) =
=======================================================

|##############################################################################|
| |
|GENERAL INFORMATION |
|=================== |
|Format : AVI |
|Format/Info : Audio Video Interleave |
|Format profile : OpenDML |
|File size : 801 MiB |
|Duration : 2h 11mn |
|Overall bit rate : 852 Kbps |
|Language : Hindi Source: VCD |
|SUBTITLE : No |
|GENRE : Musical | Romance |
|IMDB LINK : http://www.imdb.com/title/tt0139237/ |
|IMDB RATING : 6.7/10 |
|RIPPER : SMEET |
|##############################################################################|

|##############################################################################|
| |
|Video |
|Format : MPEG-4 Visual |
|Format settings, Matrix : Default (H.263) |
|Codec ID : XVID |
|Codec ID/Hint : XviD |
|Duration : 2h 11mn |
|Width : 608 pixels |
|Height : 464 pixels |
|Display aspect ratio : 4/3 |
|Frame rate : 25.000 fps |
|Resolution : 24 bits |
|Colorimetry : 4:2:0 |
|Scan type : Progressive |
|Bits/(Pixel*Frame) : 0.104 |
|Stream size : 692 MiB (86%) |
|Writing library : XviD 1.2.1 (UTC 2008-12-04) rter. |
|##############################################################################|
|Audio |
|Format : MPEG Audio |
|Format version : Version 1 |
|Format profile : Layer 3 |
|Codec ID : 55 |
|Codec ID/Hint : MP3 |
|Duration : 2h 11mn |
|Bit rate mode : Constant |
|Bit rate : 112 Kbps |
|Channel(s) : 2 channels |
|Sampling rate : 44.1 KHz |
|Resolution : 16 bits |
|Stream size : 105 MiB (13%) |
|Alignment : Aligned on interleaves |
|Interleave, duration : 963 ms (24.07 video frames) |
|Interleave, preload duration : 208 ms |
|Title : Ghazal ~ Smeet T80 2_0ch 192Kbps DELAY 0ms |
|Writing library : LAME3.98r |
|Encoding settings : -m j -V 4 -q 2 -lowpass 15.6 -b 112 |
|##############################################################################|
www.AhaShare.Com

related torrents

Torrent name

health leech seeds Size
 

comments (0)

Main Menu