Other

Dharm(2007)Hindi DVDRip XviD anmol4759

  • Download 5x Faster
  • Download torrent
  • Direct Download
  • Rate this torrent +  |  -
Dharm(2007)Hindi DVDRip XviD anmol4759

Free and Direct Download with Usenet 300GB+ free


Torrent info

Name:Dharm(2007)Hindi DVDRip XviD anmol4759

Total Size: 697.78 MB

Magnet: Magnet Link

Seeds: 0

Leechers: 0

Stream: Watch Online @ Movie4u

Last Updated: 0000-00-00 00:00:00 (Update Now)

Torrent added: 2009-08-30 21:38:30




Torrent Files List


Dharm(2007)Hindi-DVDRip-XviD ~ Smeet.avi (Size: 697.78 MB) (Files: 3)

 Dharm(2007)Hindi-DVDRip-XviD ~ Smeet.avi

697.72 MB

 Dharm(2007)Hindi-DVDRip-XviD ~ Smeet.srt

51.08 KB

 smeet.nfo

6.90 KB
 

Announce URL:

Torrent description

= Dharm (2007) =
================================================== =====

|################################################# #############################|
| |
|GENERAL INFORMATION |
|=================== |
|Format : AVI |
|Format/Info : Audio Video Interleave |
|Format profile : OpenDML |
|File size : 698 MiB |
|Duration : 1h 44mn |
|Overall bit rate : 933 Kbps |
|Language : Hindi, Urdu (Indian/pakistani viewrs) |
|SUBTITLE : English |
|GENRE : Drama |
|IMDB LINK : http://www.imdb.com/title/tt1047459/ |
|IMDB RATING : 8.0/10 |
|RIPPER : anmol4759|
|################################################# #############################|

|################################################# #############################|
| |
|Video |
|Format : MPEG-4 Visual |
|Format settings, Matrix : Default (H.263) |
|Codec ID : XVID |
|Codec ID/Hint : XviD |
|Duration : 1h 44mn |
|Width : 624 pixels |
|Height : 336 pixels |
|Display aspect ratio : 1.857 |
|Frame rate : 23.976 fps |
|Resolution : 24 bits |
|Colorimetry : 4:2:0 |
|Scan type : Progressive |
|Bits/(Pixel*Frame) : 0.159 |
|Stream size : 599 MiB (86%) |
|Writing library : XviD 1.2.1 (UTC 2008-12-04) rter. |
|################################################# #############################|
|Audio |
|Format : MPEG Audio |
|Format version : Version 1 |
|Format profile : Layer 3 |
|Codec ID : 55 |
|Codec ID/Hint : MP3 |
|Duration : 1h 44mn |
|Bit rate mode : Constant |
|Bit rate : 128 Kbps |
|Channel(s) : 2 channels |
|Sampling rate : 48.0 KHz |
|Resolution : 16 bits |
|Stream size : 95.7 MiB (14%) |
|Alignment : Aligned on interleaves |
|Interleave, duration : 823 ms (19.73 video frames) |
|Interleave, preload duration : 216 ms |
|Title : Dharm-anmol4759 T80 3_2ch 448Kbps DELAY 0ms |
|Writing library : LAME3.98r |
|Encoding settings : -m j -V 4 -q 2 -lowpass 17 -b 128 |
|################################################# #############################|


Screenshots:
Dharm(2007)Hindi DVDRip XviD  anmol4759 preview 0

related torrents

Torrent name

health leech seeds Size

[aR] Dharm (2007)

0 0 64.73 MB 0
 

comments (0)

Main Menu