Other

Chup Chup Ke 2006 Dvd Rip Dipp

  • Download 5x Faster
  • Download torrent
  • Direct Download
  • Rate this torrent +  |  -
Chup Chup Ke 2006 Dvd Rip Dipp

Download FREE And Anonymously


Torrent info

Name:Chup Chup Ke 2006 Dvd Rip Dipp

Total Size: 1.46 GB

Magnet: Magnet Link

Seeds: 0

Leechers: 0

Stream: Watch Full Movie @ Movie4u

Last Updated: 2014-02-08 06:41:47 (Update Now)

Torrent added: 2009-08-30 21:32:56



VPN For Torrents

Torrent Files List


Chup.Chup.Ke.2006.1-3Dvd.Dvd.Rip.AC3.Xvid.Bluffy.Team.DUS.avi (Size: 1.46 GB) (Files: 1)

 Chup.Chup.Ke.2006.1-3Dvd.Dvd.Rip.AC3.Xvid.Bluffy.Team.DUS.avi

1.46 GB
 

Announce URL:

Torrent description

General
Complete name : Chup.Chup.Ke.2006.1-3Dvd.Dvd.Rip.avi
Format : AVI
Format/Info : Audio Video Interleave
Format profile : OpenDML
File size : 1.46 GiB
Duration : 2h 44mn
Overall bit rate : 1 268 Kbps
Writing application : AVI-Mux GUI 1.17.7, Aug 8 2006 20:59:17

Video
Format : MPEG-4 Visual
Format profile : Streaming [email protected]
Format settings, BVOP : Yes
Format settings, QPel : Yes
Format settings, GMC : No warppoints
Format settings, Matrix : Default
Codec ID : Dipp
Codec ID/Hint : Dipp
Duration : 2h 44mn
Bit rate : 814 Kbps
Width : 640 pixels
Height : 272 pixels
Display aspect ratio : 2.35
Frame rate : 23.976 fps
Resolution : 24 bits
Colorimetry : 4:2:0
Scan type : Progressive
Bits/(Pixel*Frame) : 0.195
Stream size : 960 MiB (64%)
Writing library : XviD 1.2.1 (UTC 2008-12-04)

Audio
Format : AC-3
Format/Info : Audio Coding 3
Codec ID : 2000
Duration : 2h 44mn
Bit rate mode : Constant
Bit rate : 448 Kbps
Channel(s) : 6 channels
Channel positions : Front: L C R, Surround: L R, LFE
Sampling rate : 48.0 KHz
Stream size : 528 MiB (35%)
Alignment : Aligned on interleaves
Interleave, duration : 64 ms (1.53 video frames)
Interleave, preload duration : 9344 ms
Title : VTS_02_1 T80 3_2ch 448Kbps DELAY 7326ms

related torrents

Torrent name

health leech seeds Size

[aR] Chup Chup Ke (2006)

0 0 111.79 MB 0
 


comments (0)

Main Menu

 

script data-cfasync="false" src="//d2ghscazvn398x.cloudfront.net/?cshgd=690275">