Other

C I D(1956)[Guru Dutt] Hindi VCDRip XviD ~ Smeet

  • Download 5x Faster
  • Download torrent
  • Direct Download
  • Rate this torrent +  |  -
C I D(1956)[Guru Dutt] Hindi VCDRip XviD ~ Smeet

Free and Direct Download with Usenet 300GB+ free


Torrent info

Name:C I D(1956)[Guru Dutt] Hindi VCDRip XviD ~ Smeet

Total Size: 800.95 MB

Magnet: Magnet Link

Seeds: 0

Leechers: 1

Stream: Watch Online @ Movie4u

Last Updated: 2015-09-10 22:26:41 (Update Now)

Torrent added: 2009-08-30 21:31:18




Torrent Files List


C.I.D(1956)[Guru Dutt]-Hindi-MpegCon-XviD ~ Smeet.avi (Size: 800.95 MB) (Files: 2)

 C.I.D(1956)[Guru Dutt]-Hindi-MpegCon-XviD ~ Smeet.avi

800.94 MB

 smeet.nfo

6.94 KB
 

tracker

leech seeds
 

Torrent description


################## TM
##^^^^^^^^^^^^^^^^####
############## #^^^^^^^^^^^^^^^^^^^##
###### #### #########^^^^^# #^^^^^#########^^^^^#
###### ####### ###########^^^# #^^^^^^^^^^^^^#^^^^^#
####### ####### ############^^## #^^^^^^^^^^^^^#^^^^^#
################################# ############^^^###^^^^^^^^^^^^^#^^^^^#
############################################^#^^#^^^^^^^^^^^^^^^^#^^^^^#
#####################################^^^^^^^^#^^#########^^^#######^^^^#####
####################################^^^^^^^^^##^^^^^^^^^##^^#^^^^^^^^^^^^^^##
####################################^^^^^^^^^^###^^^^^^^^#^^#^^^^^^^^^^^^^^^##
######################### ##########^^^^^####^^##^^^^^^^^#^^#^^^^^^^^^^^^^^^##
####################################^########^^#^#########^^######^^^^^######
#############################################^^#^#^^^^^^^^^^^^^^^#^^^^^#
##############################################^#^#^^^^^^^^^^^^^^^#^^^^^#
##############################################^#^#^^^^^^^^^^^^^^^#^^^^^#
##################################^^^^^^^^^^#^#^^^^^^^^^^^^^^^#^^^^^#
############################################^^^#^##^^^^^^^^^^^^^^#^^^^^#
##############################################^#^^^###^^^^^^^^^^^#^^^^^#
#################################################^^^^#^^^^^^^^^^^#^^^^^#
###############################################^######^^^^^^^^^^^#^^^^^#
###################### ###### ##############^^^^^^^^^^^########^^^^^#
###################### ###### ##############^^##^^^^^^^# #^^^^^^#
###################### ###### ##################^^^^^^^# #^^^^^^#
############## ############### ######^^# ########
############## ############### ###
#############
MEANS QUALITY

=======================================================
= C.I.D (1956)- Guru Dutt =
=======================================================

|##############################################################################|
| |
|GENERAL INFORMATION |
|=================== |
|Format : AVI |
|Format/Info : Audio Video Interleave |
|Format profile : OpenDML |
|File size : 801 MiB |
|Duration : 2h 20mn |
|Overall bit rate : 797 Kbps |
|Language : Hindi Source: VCD |
|SUBTITLE : No |
|GENRE : Drama | Thriller |
|IMDB LINK : http://www.imdb.com/title/tt0049041/ |
|IMDB RATING : 7.4/10 |
|RIPPER : SMEET |
|##############################################################################|

|##############################################################################|
| |
|Video |
|Format : MPEG-4 Visual |
|Format settings, Matrix : Default (H.263) |
|Codec ID : XVID |
|Codec ID/Hint : XviD |
|Duration : 2h 20mn |
|Width : 608 pixels |
|Height : 432 pixels |
|Display aspect ratio : 1.407 |
|Frame rate : 25.000 fps |
|Resolution : 24 bits |
|Colorimetry : 4:2:0 |
|Scan type : Progressive |
|Bits/(Pixel*Frame) : 0.104 |
|Stream size : 685 MiB (86%) |
|Writing library : XviD 1.2.1 (UTC 2008-12-04) rter. |
|##############################################################################|
|Audio |
|Format : MPEG Audio |
|Format version : Version 1 |
|Format profile : Layer 3 |
|Codec ID : 55 |
|Codec ID/Hint : MP3 |
|Duration : 2h 20mn |
|Bit rate mode : Constant |
|Bit rate : 112 Kbps |
|Channel(s) : 2 channels |
|Sampling rate : 44.1 KHz |
|Resolution : 16 bits |
|Stream size : 113 MiB (14%) |
|Alignment : Aligned on interleaves |
|Interleave, duration : 954 ms (23.86 video frames) |
|Interleave, preload duration : 208 ms |
|Title : CID ~ Smeet T80 2_0ch 192Kbps DELAY 0ms0ms |
|Writing library : LAME3.98r |
|Encoding settings : -m j -V 4 -q 2 -lowpass 15.6 -b 112 |
|##############################################################################|
www.AhaShare.Com

related torrents

Torrent name

health leech seeds Size
 

comments (0)

Main Menu