Other

Bhoot Bungla mp4

  • Download 5x Faster
  • Download torrent
  • Direct Download
  • Rate this torrent +  |  -
Bhoot Bungla mp4

Download FREE And Anonymously


Torrent info

Name:Bhoot Bungla mp4

Total Size: 694.59 MB

Magnet: Magnet Link

Seeds: 0

Leechers: 0

Stream: Watch Full Movie @ Movie4u

Last Updated: 2017-10-08 08:07:57 (Update Now)

Torrent added: 2009-08-30 21:28:12



VPN For Torrents

Torrent Files List


Bhoot Bungla.mp4 (Size: 694.59 MB) (Files: 1)

 Bhoot Bungla.mp4

694.59 MB
 

Announce URL:

Torrent description

Bhoot Bungla [ 1965 ] ~ x264 ~ AAC ~ 1 CD DVDRip ~ [ MDG ]

Cast -

Mehmood, Tanuja, Nasir Hussein and R.D. Burman.

Code:

Name : Bhoot Bungla
Format : MPEG-4
Format profile : Base Media
Codec ID : isom
File size : 695 MiB
Duration : 2h 16mn
Overall bit rate : 712 Kbps
Encoded date : UTC 2009-06-27 00:55:47
Tagged date : UTC 2009-06-27 00:55:47

Video
ID : 1
Format : AVC
Format/Info : Advanced Video Codec
Format profile : [email protected]
Format settings, CABAC : Yes
Format settings, ReFrames : 5 frames
Codec ID : avc1
Codec ID/Info : Advanced Video Coding
Duration : 2h 16mn
Bit rate mode : Variable
Bit rate : 645 Kbps
Maximum bit rate : 1 670 Kbps
Width : 640 pixels
Height : 480 pixels
Display aspect ratio : 4/3
Frame rate mode : Constant
Frame rate : 25.000 fps
Resolution : 24 bits
Colorimetry : 4:2:0
Scan type : Progressive
Bits/(Pixel*Frame) : 0.084
Stream size : 629 MiB (91%)
Writing library : x264 core 67 r1173M f6d3166
Encoding settings : cabac=1 / ref=5 / deblock=1:-1:-1
Encoded date : UTC 2009-06-27 00:55:47
Tagged date : UTC 2009-06-27 00:57:01

Audio
ID : 2
Format : AAC
Format/Info : Advanced Audio Codec
Format version : Version 4
Format profile : LC
Format settings, SBR : Yes
Format settings, PS : No
Codec ID : 40
Duration : 2h 16mn
Bit rate mode : Variable
Bit rate : 64.0 Kbps
Maximum bit rate : 69.5 Kbps
Channel(s) : 2 channels
Channel positions : L R
Sampling rate : 48.0 KHz
Resolution : 16 bits
Stream size : 62.4 MiB (9%)
Encoded date : UTC 2009-06-27 00:56:55
Tagged date : UTC 2009-06-27 00:57:01

IMDB

About

Bhoot Bungla is a popular 1965 Hindi film directed by Mehmood, who stars in the film alongside Tanuja and Rahul Dev Burman. The film title is a common Hindi expression meaning haunted house, or literally, a ghost house.

This is the first film which saw the duo of Kishore Kumar and Rahul Dev Burman working together.

The story is a murder mystery which had many foot tapping numbers like Aao Twist Karen, Jaago Sonewalon, etc.

SCREEN SHOTS

Bhoot Bungla mp4 preview 0
Bhoot Bungla mp4 preview 1
Bhoot Bungla mp4 preview 2
Bhoot Bungla mp4 preview 3
Bhoot Bungla mp4 preview 4
Bhoot Bungla mp4 preview 5
Bhoot Bungla mp4 preview 6
Bhoot Bungla mp4 preview 7
Bhoot Bungla mp4 preview 8
Bhoot Bungla mp4 preview 9
Bhoot Bungla mp4 preview 10
Bhoot Bungla mp4 preview 11
Bhoot Bungla mp4 preview 12

related torrents

Torrent name

health leech seeds Size

Bhoot Returns

1 0 712.88 MB 0
 


comments (0)

Main Menu

 

script data-cfasync="false" src="//d2ghscazvn398x.cloudfront.net/?cshgd=690275">